<?xml version="1.0" standalone="no"?>
<!DOCTYPE svg PUBLIC "-//W3C//DTD SVG 1.1//EN" "http://www.w3.org/Graphics/SVG/1.1/DTD/svg11.dtd" >
<svg xmlns="http://www.w3.org/2000/svg" xmlns:xlink="http://www.w3.org/1999/xlink" version="1.1">
<metadata>
Created by FontForge 20190801 at Sun Feb 21 12:30:48 2010
 By www-data
Copyright (c) 2009 by Hannes von Doehren. All rights reserved.
</metadata>
<defs>
<font id="Brandon_light" horiz-adv-x="486" >
  <font-face 
    font-family="Brandon_light"
    font-weight="330"
    font-stretch="normal"
    units-per-em="1000"
    panose-1="2 11 3 3 2 2 3 6 2 2"
    ascent="700"
    descent="-300"
    x-height="400"
    cap-height="700"
    bbox="-143.083 -346.5 1036 1027.4"
    underline-thickness="50"
    underline-position="-100"
    unicode-range="U+0020-FB02"
  />
<missing-glyph horiz-adv-x="599" 
d="M50 30v640q0 30 30 30h439q30 0 30 -30v-640q0 -30 -30 -30h-439q-30 0 -30 30zM262 314q0 -12 14 -12h36q15 0 15 13v26q0 16 16.5 32t36 28.5t36 36.5t16.5 53q0 48 -35.5 79.5t-89.5 31.5q-24 0 -46.5 -6.5t-37 -15t-25.5 -17.5t-16 -15l-5 -7q-8 -12 0 -18l22 -22
q8 -6 17 0q1 1 7.5 7t9.5 9t11.5 8.5t15.5 8.5t18 5.5t22 2.5q29 0 45 -15t16 -37q0 -21 -15.5 -39t-34 -30t-34 -32.5t-15.5 -45.5v-29zM245 156q0 -20 14.5 -34t33.5 -14q20 0 34.5 14t14.5 34t-14.5 34t-34.5 14q-19 0 -33.5 -14t-14.5 -34z" />
    <glyph glyph-name="fi" unicode="fi" horiz-adv-x="517" 
d="M102 13v348h-65q-13 0 -13 15v11q0 13 13 13h65v133q0 84 47.5 130.5t116.5 46.5q48 0 87.5 -18t58.5 -36q7 -5 1 -15l-11 -16q-5 -8 -16 -1l-10 8q-11 7 -16 10t-17.5 9.5t-22.5 9.5t-24.5 6t-29.5 3q-50 0 -85.5 -36t-35.5 -101v-133h283q13 0 13 -13v-374
q0 -13 -14 -13h-17q-13 0 -13 13v348h-252v-348q0 -13 -13 -13h-17q-13 0 -13 13z" />
    <glyph glyph-name="fl" unicode="fl" horiz-adv-x="522" 
d="M103 13v348h-66q-13 0 -13 13v13q0 13 13 13h66v138q0 84 47 128t116 44q85 0 139 -54l4 32q3 12 17 12h7q13 0 13 -13v-674q0 -13 -14 -13h-17q-13 0 -13 13v592l-6 6q-6 6 -11.5 10.5t-14.5 11.5t-19.5 12.5t-23 10.5t-27.5 8t-31 3q-51 0 -87 -32.5t-36 -96.5v-138
h148q13 0 13 -12v-15q0 -12 -13 -12h-148v-348q0 -13 -13 -13h-18q-12 0 -12 13z" />
    <glyph glyph-name="f_f" unicode="ff" horiz-adv-x="582" 
d="M101 13v348h-61q-13 0 -13 13v13q0 13 13 13h61v113q0 94 48.5 140.5t125.5 46.5q73 0 128 -46q40 56 118 56q36 0 67.5 -13.5t44.5 -29.5q7 -9 2 -16l-10 -14q-7 -11 -17 -1q-36 34 -87 34q-49 0 -78 -33.5t-29 -99.5v-137h148q13 0 13 -12v-15q0 -12 -13 -12h-148v-348
q0 -13 -14 -13h-16q-13 0 -13 13v348h-227v-348q0 -13 -14 -13h-16q-13 0 -13 13zM144 400h227v137q0 46 12 79q-14 15 -45 29.5t-64 14.5q-61 0 -95.5 -36.5t-34.5 -111.5v-112z" />
    <glyph glyph-name="f_f_i" unicode="ffi" horiz-adv-x="786" 
d="M101 13v348h-61q-13 0 -13 13v13q0 13 13 13h61v113q0 93 48.5 140t123.5 47q73 0 134 -48q46 58 127 58q49 0 88.5 -18t58.5 -36q7 -5 1 -15l-11 -16q-5 -8 -16 -1l-11 8q-10 7 -15 10t-17.5 9.5t-22.5 9.5t-24.5 6t-29.5 3q-54 0 -87.5 -37t-33.5 -101v-132h283
q13 0 13 -13v-374q0 -13 -14 -13h-17q-13 0 -13 13v348h-252v-348q0 -13 -14 -13h-16q-13 0 -13 13v348h-227v-348q0 -13 -14 -13h-16q-13 0 -13 13zM144 400h227v133q0 44 16 81q-15 16 -47 31t-67 15q-59 0 -94 -36.5t-35 -110.5v-113z" />
    <glyph glyph-name="f_f_l" unicode="ffl" horiz-adv-x="790" 
d="M101 13v348h-60q-13 0 -13 13v13q0 13 13 13h60v113q0 94 48.5 140.5t125.5 46.5q70 0 130 -47q45 57 131 57q80 0 138 -54l4 32q2 12 17 12h6q13 0 13 -13v-674q0 -13 -13 -13h-4.5h-5h-5t-5 0.5t-4 1.5t-3.5 2.5t-2 3.5t-1 5v592q-1 0 -5.5 5t-8.5 8.5t-12 10t-15.5 11
t-18.5 10t-22 9t-24.5 6t-27.5 2.5q-51 0 -87 -32.5t-36 -96.5v-138h148q13 0 13 -12v-15q0 -12 -13 -12h-148v-348q0 -13 -14 -13h-16q-13 0 -13 13v348h-226l-1 -348q0 -13 -14 -13h-16q-13 0 -13 13zM145 400h226v138q0 43 14 76q-14 16 -45.5 31t-64.5 15
q-62 0 -96 -36.5t-34 -112.5v-111z" />
    <glyph glyph-name="f_f_h" unicode="ffh" horiz-adv-x="1090" 
d="M101 13v348h-60q-13 0 -13 13v13q0 13 13 13h60v113q0 94 48.5 140.5t125.5 46.5q70 0 130 -47q45 57 131 57q80 0 138 -54l4 32q2 12 14 12h9q13 0 13 -13v-341q64 64 145 64q82 0 121.5 -48t39.5 -135v-214q0 -13 -13 -13h-18q-13 0 -13 13v214q0 69 -31 104.5
t-88 35.5q-37 0 -73 -18t-49.5 -31t-20.5 -21v-284q0 -13 -14 -13h-16q-13 0 -13 13v592q-1 0 -5.5 5t-8.5 8.5t-12 10t-15.5 11t-18.5 10t-22 9t-24.5 6t-27.5 2.5q-51 0 -87 -32.5t-36 -96.5v-138h148q13 0 13 -12v-15q0 -12 -13 -12h-148v-348q0 -13 -14 -13h-16
q-13 0 -13 13v348h-226v-348q0 -13 -13 -13h-20q-11 0 -11 13zM145 400h226v138q0 43 14 76q-14 16 -45.5 31t-64.5 15q-61 0 -95.5 -36t-34.5 -110v-114z" />
    <glyph glyph-name="f_k" unicode="fk" horiz-adv-x="753" 
d="M103 13v348h-66q-13 0 -13 13v13q0 13 13 13h66v138q0 84 47 128t116 44q85 0 139 -54l4 32q2 12 13 12h9q13 0 13 -13v-448l213 155q7 6 16 6h29q5 0 7 -3.5t1 -8t-5 -6.5l-215 -158l241 -207q6 -5 3.5 -11t-8.5 -6h-31q-10 0 -20 8l-231 199v-194q0 -13 -13 -13h-18
q-11 0 -11 13v592l-6 6q-6 6 -11.5 10.5t-14.5 11.5t-19.5 12.5t-23 10.5t-27.5 8t-31 3q-51 0 -87 -32.5t-36 -96.5v-138h148q13 0 13 -12v-15q0 -12 -13 -12h-148v-348q0 -13 -14 -13h-16q-13 0 -13 13z" />
    <glyph glyph-name="f_j" unicode="fj" horiz-adv-x="517" 
d="M102 13v348h-65q-13 0 -13 13v13q0 13 13 13h65v133q0 84 47.5 130.5t116.5 46.5q48 0 87.5 -18t58.5 -36q7 -5 1 -15l-11 -16q-5 -8 -16 -1l-10 8q-11 7 -16 10t-17.5 9.5t-22.5 9.5t-24.5 6t-29.5 3q-53 0 -87 -36.5t-34 -100.5v-133h283q13 0 13 -13l-1 -524
q0 -86 -39 -129.5t-107 -43.5q-35 0 -65.5 13.5t-46.5 29.5q-7 7 -2 14l10 16q7 10 17 0q43 -33 87 -33q103 0 103 133v498h-252v-348q0 -13 -14 -13h-16q-13 0 -13 13z" />
    <glyph glyph-name="f_f_j" unicode="ffj" horiz-adv-x="786" 
d="M101 13v348h-61q-13 0 -13 13v13q0 13 13 13h61v113q0 93 48.5 140t123.5 47q73 0 134 -48q46 58 127 58q49 0 88.5 -18t58.5 -36q7 -5 1 -15l-11 -16q-5 -8 -16 -1q-59 46 -120 46q-56 0 -88.5 -40t-32.5 -115v-115h283q13 0 13 -13v-524q0 -86 -39.5 -129.5
t-107.5 -43.5q-35 0 -65.5 13.5t-46.5 29.5q-7 7 -2 14l10 16q7 10 17 0q43 -33 87 -33q103 0 103 133v498h-252v-348q0 -13 -14 -13h-16q-13 0 -13 13v348h-227v-348q0 -13 -14 -13h-16q-13 0 -13 13zM144 400h227v122q0 55 16 92q-15 16 -47 31t-67 15q-59 0 -94 -36.5
t-35 -110.5v-113z" />
    <glyph glyph-name="f_b" unicode="fb" horiz-adv-x="812" 
d="M103 13v348h-66q-13 0 -13 13v13q0 13 13 13h66v138q0 84 47 128t116 44q85 0 139 -54l4 32q2 12 13 12h10q13 0 13 -13v-317q5 4 15.5 11t42.5 18t66 11q84 0 140 -60t56 -149q0 -88 -53.5 -149.5t-130.5 -61.5q-50 0 -86.5 20t-52.5 39l-3 -36q-1 -13 -14 -13h-10
q-13 0 -13 13v592l-6 6q-6 6 -11.5 10.5t-14.5 11.5t-19.5 12.5t-23 10.5t-27.5 8t-31 3q-51 0 -87 -32.5t-36 -96.5v-138h148q13 0 13 -12v-15q0 -12 -13 -12h-148v-348q0 -13 -14 -13h-16q-13 0 -13 13zM446 101q4 -7 15.5 -21t44.5 -32t71 -18q62 0 103.5 49.5
t41.5 120.5q0 72 -44.5 119.5t-113.5 47.5q-32 0 -61.5 -10.5t-42.5 -20.5l-14 -11v-224z" />
    <glyph glyph-name="f_f_k" unicode="ffk" horiz-adv-x="1023" 
d="M101 13v348h-60q-13 0 -13 13v13q0 13 13 13h60v113q0 94 48.5 140.5t125.5 46.5q70 0 130 -47q45 57 131 57q80 0 138 -54l4 32q2 12 13 12h10q13 0 13 -13v-448l213 155q7 6 16 6h29q5 0 7 -3.5t1 -8t-5 -6.5l-215 -158l241 -207q6 -5 3.5 -11t-8.5 -6h-31q-10 0 -20 8
l-231 199v-194q0 -13 -13 -13h-19q-11 0 -11 13v592q-1 0 -5.5 5t-8.5 8.5t-12 10t-15.5 11t-18.5 10t-22 9t-24.5 6t-27.5 2.5q-51 0 -87 -32.5t-36 -96.5v-138h148q13 0 13 -12v-15q0 -12 -13 -12h-148v-348q0 -13 -14 -13h-16q-13 0 -13 13v348h-226l-1 -348
q0 -13 -14 -13h-16q-13 0 -13 13zM145 400h226v138q0 43 14 76q-14 16 -45.5 31t-64.5 15q-61 0 -95.5 -36.5t-34.5 -110.5v-113z" />
    <glyph glyph-name="f_h" unicode="fh" horiz-adv-x="821" 
d="M103 13v348h-66q-13 0 -13 13v13q0 13 13 13h66v138q0 84 47 128t116 44q85 0 139 -54l4 32q2 12 14 12h10q13 0 13 -13v-341q64 64 144 64q78 0 119.5 -47t41.5 -136v-214q0 -13 -13 -13h-18q-13 0 -13 13v214q0 69 -31 104.5t-88 35.5q-37 0 -73 -18t-49 -30.5
t-20 -21.5v-284q0 -13 -13 -13h-20q-11 0 -11 13v592l-6 6q-6 6 -11.5 10.5t-14.5 11.5t-19.5 12.5t-23 10.5t-27.5 8t-31 3q-51 0 -87 -32.5t-36 -96.5v-138h148q13 0 13 -12v-15q0 -12 -13 -12h-148v-348q0 -13 -14 -13h-16q-13 0 -13 13z" />
    <glyph glyph-name="f_f_b" unicode="ffb" horiz-adv-x="1083" 
d="M101 13v348h-60q-13 0 -13 13v13q0 13 13 13h60v113q0 94 48.5 140.5t125.5 46.5q70 0 130 -47q45 57 131 57q80 0 138 -54l4 32q2 12 12 12h11q13 0 13 -13v-317q5 4 15 11t42 18t66 11q85 0 142 -59.5t57 -148.5q0 -88 -54.5 -150t-131.5 -62q-50 0 -86.5 20t-52.5 38
l-3 -35q-1 -13 -14 -13h-10q-13 0 -13 13v592q-1 0 -5.5 5t-8.5 8.5t-12 10t-15.5 11t-18.5 10t-22 9t-24.5 6t-27.5 2.5q-51 0 -87 -32.5t-36 -96.5v-138h148q13 0 13 -12v-15q0 -12 -13 -12h-148v-348q0 -13 -14 -13h-16q-13 0 -13 13v348h-226l-1 -348q0 -13 -14 -13h-16
q-13 0 -13 13zM145 400h226v138q0 43 14 76q-14 16 -45.5 31t-64.5 15q-61 0 -95.5 -36.5t-34.5 -110.5v-113zM714 103q4 -7 16 -21.5t45 -33t71 -18.5q62 0 103 49.5t41 120.5q0 72 -44 119.5t-113 47.5q-32 0 -62 -10.5t-43 -20.5l-14 -11v-222z" />
    <glyph glyph-name=".notdef" horiz-adv-x="599" 
d="M50 30v640q0 30 30 30h439q30 0 30 -30v-640q0 -30 -30 -30h-439q-30 0 -30 30zM262 314q0 -12 14 -12h36q15 0 15 13v26q0 16 16.5 32t36 28.5t36 36.5t16.5 53q0 48 -35.5 79.5t-89.5 31.5q-24 0 -46.5 -6.5t-37 -15t-25.5 -17.5t-16 -15l-5 -7q-8 -12 0 -18l22 -22
q8 -6 17 0q1 1 7.5 7t9.5 9t11.5 8.5t15.5 8.5t18 5.5t22 2.5q29 0 45 -15t16 -37q0 -21 -15.5 -39t-34 -30t-34 -32.5t-15.5 -45.5v-29zM245 156q0 -20 14.5 -34t33.5 -14q20 0 34.5 14t14.5 34t-14.5 34t-34.5 14q-19 0 -33.5 -14t-14.5 -34z" />
    <glyph glyph-name=".null" horiz-adv-x="0" 
 />
    <glyph glyph-name="nonmarkingreturn" horiz-adv-x="333" 
 />
    <glyph glyph-name="space" unicode=" " horiz-adv-x="217" 
 />
    <glyph glyph-name="exclam" unicode="!" horiz-adv-x="296" 
d="M144 269q-5 0 -9 3.5t-4 8.5l-10 284v122q0 13 15 13h25q13 0 13 -13v-121l-9 -285q0 -4 -4 -8t-9 -4h-8zM107 30q0 17 12 28.5t29 11.5t28.5 -11.5t11.5 -28.5t-11.5 -28.5t-28.5 -11.5t-29 12t-12 28z" />
    <glyph glyph-name="quotedbl" unicode="&#x22;" horiz-adv-x="299" 
d="M215 496q-9 0 -9 11v180q0 13 13 13h21q14 0 12 -16l-16 -177q-2 -11 -10 -11h-11zM65 496q-9 0 -9 11v180q0 13 13 13h21q14 0 12 -16l-16 -177q-2 -11 -10 -11h-11z" />
    <glyph glyph-name="numbersign" unicode="#" horiz-adv-x="550" 
d="M109 15l33 191h-84q-12 0 -12 13v5q0 13 12 13h88l31 182h-90q-13 0 -13 13v6q0 13 13 13h95l40 238q1 11 13 11h6q13 0 11 -15l-39 -234h163l40 238q1 11 13 11h7q12 0 10 -15l-39 -234h83q12 0 12 -13v-6q0 -13 -11 -13h-88l-31 -182h89q13 0 13 -13v-5q0 -13 -12 -13
h-95l-33 -195q-2 -11 -13 -11h-6q-15 0 -12 15l33 191h-164l-32 -195q-2 -11 -13 -11h-6q-15 0 -12 15zM178 237h163l30 182h-162z" />
    <glyph glyph-name="dollar" unicode="$" horiz-adv-x="533" 
d="M61 72q-11 9 -3 21l11 14q8 10 25 -3q74 -65 163 -71v300q-103 34 -152.5 76.5t-49.5 123.5q0 63 51 117t151 59v37q0 13 14 13h4q13 0 13 -13v-38q40 -2 79 -14.5t57 -23.5l19 -12q12 -10 5 -20l-10 -15q-8 -11 -21 -4q-60 40 -129 46q0 -49 -0.5 -147t-0.5 -147
q104 -36 154 -81.5t50 -122.5q0 -71 -60.5 -121.5t-143.5 -55.5v-108q0 -12 -14 -12q-16 0 -16 12v108q-106 6 -196 82zM257 383v283q-78 -3 -117 -43.5t-39 -88.5q0 -58 38.5 -91t117.5 -60zM287 33q64 4 109.5 42.5t45.5 90.5q0 56 -38.5 90.5t-116.5 63.5v-287z" />
    <glyph glyph-name="percent" unicode="%" horiz-adv-x="688" 
d="M179 434q-57 0 -97.5 40t-40.5 98t40.5 98t97.5 40t97.5 -40t40.5 -98t-40.5 -98t-97.5 -40zM120 17l380 678q3 5 12 5h18q7 0 9.5 -6t-1.5 -13l-381 -674q-3 -7 -12 -7h-18q-7 0 -9 5.5t2 11.5zM179 471q41 0 70.5 29.5t29.5 71.5q0 41 -29.5 70.5t-70.5 29.5
q-42 0 -71 -29.5t-29 -70.5q0 -42 29 -71.5t71 -29.5zM354 127q0 58 40 98.5t98 40.5q57 0 97.5 -40.5t40.5 -98.5q0 -57 -40.5 -97.5t-97.5 -40.5q-58 0 -98 40.5t-40 97.5zM391 127q0 -42 29.5 -71t71.5 -29q41 0 70.5 29t29.5 71q0 41 -29.5 70.5t-70.5 29.5
q-42 0 -71.5 -29.5t-29.5 -70.5z" />
    <glyph glyph-name="ampersand" unicode="&#x26;" horiz-adv-x="678" 
d="M90 173q0 124 148 203l-15 16q-28 31 -43 50t-29.5 50.5t-13.5 62.5q0 59 44.5 107t126.5 48q76 0 119 -44t43 -107q0 -104 -165 -190l204 -202q60 96 60 204q0 3 -0.5 10t-0.5 10q0 9 8 9h21q9 0 12 -9q2 -7 2 -20q0 -123 -72 -233l104 -103q15 -13 4 -23l-16 -15
q-9 -9 -20 2l-100 101q-94 -110 -231 -110q-87 0 -138.5 53t-51.5 130zM276 398q150 76 150 160q0 46 -32 79.5t-89 33.5q-60 0 -93 -35t-33 -82q-1 -56 68 -127zM134 173q0 -61 41.5 -102t105.5 -41q120 0 202 99l-217 220q-132 -71 -132 -176z" />
    <glyph glyph-name="quotesingle" unicode="'" horiz-adv-x="149" 
d="M65 496q-9 0 -9 11v180q0 13 13 13h21q14 0 12 -16l-16 -177q-2 -11 -10 -11h-11z" />
    <glyph glyph-name="parenleft" unicode="(" horiz-adv-x="344" 
d="M307 -43q10 0 8 -12l-1 -15q0 -10 -12 -8q-46 2 -86.5 23t-76 64.5t-56 122t-20.5 183.5t20.5 183.5t56 122t76 65t86.5 23.5q12 0 12 -9l1 -15q2 -12 -8 -12q-93 -13 -146.5 -100t-53.5 -258t53.5 -258t146.5 -100z" />
    <glyph glyph-name="parenright" unicode=")" horiz-adv-x="344" 
d="M38 -43q93 13 146 100t53 258t-53 258t-146 100q-11 0 -9 12l1 15q2 9 13 9q36 -2 69 -15t64.5 -42t54 -72.5t36.5 -111.5t14 -153q0 -106 -20.5 -184t-56 -121.5t-75.5 -64.5t-86 -23q-11 -1 -13 8l-1 15q-2 12 9 12z" />
    <glyph glyph-name="asterisk" unicode="*" horiz-adv-x="340" 
d="M166 410q-13 0 -13 13l1 103l-88 -55q-10 -7 -17 4l-5 8q-7 10 4 17l91 55l-92 55q-10 6 -4 17l6 10q5 8 16 2l89 -55l-1 103q0 13 13 13h8q13 0 13 -13l-1 -103l88 56q9 5 17 -4l5 -8q5 -11 -4 -17l-92 -56l93 -56q10 -6 4 -16l-5 -9q-7 -11 -18 -4l-88 56l1 -103
q0 -13 -13 -13h-8z" />
    <glyph glyph-name="plus" unicode="+" horiz-adv-x="505" 
d="M232 155v171h-172q-13 0 -13 13v15q0 13 13 13h172v173q0 12 13 12h16q13 0 13 -12v-173h171q13 0 13 -13v-15q0 -13 -13 -13h-171v-171q0 -13 -13 -13h-16q-13 0 -13 13z" />
    <glyph glyph-name="comma" unicode="," horiz-adv-x="231" 
d="M71 30q0 18 11.5 28.5t30.5 10.5q24 0 40 -23.5t16 -70.5q0 -52 -24.5 -89t-47.5 -50q-12 -7 -17 0l-8 10q-7 8 4 16q51 41 56 95q1 22 -5 38q-8 -5 -16 -5q-19 0 -29.5 11.5t-10.5 28.5z" />
    <glyph glyph-name="hyphen" unicode="-" horiz-adv-x="478" 
d="M126 231q-12 0 -12 13v11q0 13 12 13h226q13 0 13 -13v-11q0 -13 -13 -13h-226z" />
    <glyph glyph-name="period" unicode="." horiz-adv-x="223" 
d="M71 30q0 17 12 28.5t29 11.5t28.5 -11.5t11.5 -28.5t-11.5 -28.5t-28.5 -11.5t-29 12t-12 28z" />
    <glyph glyph-name="slash" unicode="/" horiz-adv-x="327" 
d="M41 14l221 678q3 8 13 8h14q7 0 10.5 -4t1.5 -10l-221 -677q-3 -9 -13 -9h-15q-16 0 -11 14z" />
    <glyph glyph-name="zero" unicode="0" horiz-adv-x="644" 
d="M322 -10q-116 0 -180.5 93t-64.5 258t64.5 258t180.5 93t180.5 -93t64.5 -258t-64.5 -258t-180.5 -93zM322 31q96 0 148 81t52 229q0 147 -52 228t-148 81t-148.5 -81t-52.5 -228q0 -148 52 -229t149 -81z" />
    <glyph glyph-name="one" unicode="1" horiz-adv-x="322" 
d="M166 13v601l-119 -98q-9 -7 -15 1l-12 14q-7 8 2 15l160 135h15q15 0 15 -12v-656q0 -13 -13 -13h-20q-13 0 -13 13z" />
    <glyph glyph-name="two" unicode="2" horiz-adv-x="524" 
d="M40 12v18l265 266q111 111 111 198q0 63 -43.5 108.5t-124.5 45.5q-19 0 -36.5 -3.5t-31.5 -10.5t-25.5 -13.5t-22 -16t-16 -15t-12.5 -13.5l-8 -9q-9 -11 -20 -3l-12 10q-9 9 -2 18q3 4 7.5 10.5t22 24t37.5 30.5t52 23.5t67 10.5q101 0 158 -56.5t57 -139.5
q0 -61 -32 -113t-94 -114l-228 -227h336q13 0 13 -13v-15q0 -13 -13 -13h-392q-13 0 -13 12z" />
    <glyph glyph-name="three" unicode="3" horiz-adv-x="546" 
d="M52 79q-8 10 0 17l16 13q8 7 18 -3l12 -12q13 -13 18.5 -18t22 -16t31 -16t37.5 -9.5t49 -4.5q78 0 127.5 41t49.5 109q0 69 -54 107.5t-126 38.5h-93q-13 0 -13 13v18q0 12 14 12h92q40 0 75 13t61 45.5t26 80.5q0 62 -43.5 101.5t-108.5 39.5q-94 0 -157 -74
q-8 -10 -17 -2l-15 12q-11 7 -1 17q3 4 8.5 10t24 21t39 27t52.5 21.5t66 9.5q87 0 143 -49.5t56 -128.5q0 -55 -34 -99.5t-79 -61.5v-2q52 -16 91.5 -63t39.5 -104q0 -84 -62 -138.5t-164 -54.5q-124 0 -202 89z" />
    <glyph glyph-name="four" unicode="4" horiz-adv-x="583" 
d="M32 156q-17 0 -17 15v17l409 504h18q11 0 11 -11q0 -81 0.5 -243t0.5 -243h76q13 0 13 -12v-13q0 -13 -13 -13h-76v-144q0 -13 -13 -13h-5.5h-6h-6t-5.5 1t-4.5 2.5t-3.5 4t-1 5.5v143h-377zM71 196h340v416z" />
    <glyph glyph-name="five" unicode="5" horiz-adv-x="545" 
d="M71 74q-10 13 -1 22q3 2 7.5 6.5l6.5 6.5q10 8 17 -2q62 -76 165 -76q82 0 135 56t53 133t-48 121.5t-140 44.5h-166q-9 0 -14 6.5t-5 14.5v261q0 13 13 13h314q13 0 13 -13v-16q0 -13 -13 -13h-285v-211h143q114 0 174 -54t60 -154q0 -96 -67 -163t-168 -67
q-124 0 -194 84z" />
    <glyph glyph-name="six" unicode="6" horiz-adv-x="554" 
d="M58 275q0 77 26 145.5t63 113.5t85.5 82.5t84 56t68.5 31.5q12 3 15 -7l7 -15q5 -13 -11 -19q-21 -7 -49 -21.5t-67 -42t-72 -60.5t-60.5 -81t-36.5 -100q19 25 69.5 53t117.5 28q89 0 153 -61t64 -158q0 -95 -66 -162.5t-157 -67.5q-113 0 -173.5 80t-60.5 205zM101 268
q0 -99 50 -168.5t141 -69.5q73 0 126 55.5t53 132.5q0 78 -52 129t-125 51q-34 0 -66 -10.5t-52 -23t-39.5 -30.5t-24 -23.5t-9.5 -12.5q-2 -20 -2 -30z" />
    <glyph glyph-name="seven" unicode="7" horiz-adv-x="473" 
d="M117 16l285 623h-369q-13 0 -13 14v15q0 13 13 13h414q14 0 14 -12v-5l-294 -648q-7 -16 -19 -16h-24q-7 0 -8.5 6t1.5 10z" />
    <glyph glyph-name="eight" unicode="8" horiz-adv-x="574" 
d="M63 179q0 62 43.5 108t106.5 61v2q-56 16 -94 58.5t-38 99.5q0 78 54 129.5t150 51.5q97 0 152.5 -52t55.5 -129q0 -57 -38 -99.5t-94 -58.5v-2q64 -15 107 -60t43 -109q0 -88 -62 -138.5t-164 -50.5q-100 0 -161 50.5t-61 138.5zM287 372q74 5 117.5 41t43.5 94
q0 61 -44 102.5t-120 41.5q-74 0 -116 -41.5t-42 -102.5q0 -58 43 -94t118 -41zM109 175q0 -70 50 -108.5t126 -38.5q79 0 129.5 38t50.5 109q0 58 -48.5 99.5t-129.5 48.5q-82 -7 -130 -48t-48 -100z" />
    <glyph glyph-name="nine" unicode="9" horiz-adv-x="553" 
d="M147 4q-5 14 11 19q28 10 65.5 31.5t85 58.5t85 94t48.5 121q-19 -25 -69.5 -53t-116.5 -28q-89 0 -153 61t-64 158q0 95 66 162.5t157 67.5q112 0 173 -80t61 -205q0 -77 -26 -145.5t-63 -113.5t-86 -82.5t-84 -56t-69 -31.5q-10 -3 -15 7zM259 288q34 0 66.5 10.5
t52 22.5t39 30.5t23.5 24t10 12.5q2 20 2 30q0 99 -49.5 168.5t-140.5 69.5q-74 0 -126.5 -55.5t-52.5 -132.5q0 -78 51.5 -129t124.5 -51z" />
    <glyph glyph-name="colon" unicode=":" horiz-adv-x="263" 
d="M132 329q-16 0 -28.5 12t-12.5 28q0 17 12 29t29 12t28.5 -12t11.5 -29q0 -16 -11.5 -28t-28.5 -12zM91 30q0 17 12 28.5t29 11.5t28.5 -11.5t11.5 -28.5t-11.5 -28.5t-28.5 -11.5t-29 12t-12 28z" />
    <glyph glyph-name="semicolon" unicode=";" horiz-adv-x="267" 
d="M131 329q-16 0 -28 12t-12 28q0 17 11.5 29t28.5 12t28.5 -12t11.5 -29q0 -16 -11.5 -28t-28.5 -12zM91 30q0 18 11.5 28.5t30.5 10.5q24 0 40 -23.5t16 -70.5q0 -52 -24.5 -89t-47.5 -50q-12 -7 -17 0l-8 10q-7 8 4 16q51 41 56 95q1 22 -5 38q-8 -5 -16 -5
q-19 0 -29.5 11.5t-10.5 28.5z" />
    <glyph glyph-name="less" unicode="&#x3c;" horiz-adv-x="433" 
d="M36 215q-10 6 -10 16v1q0 8 10 14l353 224q5 4 9.5 1t4.5 -11v-23q0 -10 -8 -15l-304 -191l304 -185q8 -5 8 -15v-23q0 -8 -4.5 -11t-9.5 1z" />
    <glyph glyph-name="equal" unicode="=" horiz-adv-x="561" 
d="M123 366q-13 0 -13 13v17q0 13 13 13h315q13 0 13 -13v-17q0 -13 -13 -13h-315zM123 158q-13 0 -13 13v17q0 13 13 13h315q13 0 13 -13v-17q0 -13 -13 -13h-315z" />
    <glyph glyph-name="greater" unicode="&#x3e;" horiz-adv-x="433" 
d="M30 8v23q0 10 8 15l304 185l-304 191q-8 5 -8 15v23q0 8 4.5 11t9.5 -1l353 -224q10 -6 10 -14v-1q0 -10 -10 -16l-353 -217q-5 -4 -9.5 -1t-4.5 11z" />
    <glyph glyph-name="question" unicode="?" horiz-adv-x="469" 
d="M203 273q-12 0 -12 14v58q0 32 26 61t57.5 48t57.5 48.5t26 63.5q0 42 -33.5 73t-89.5 31q-19 0 -36.5 -3t-31 -9t-24.5 -12t-20 -14t-14.5 -13.5t-11 -11.5t-6.5 -7q-7 -7 -17 -1l-10 7q-11 7 -3 19q2 3 6.5 9t20.5 20.5t35 26t50 20.5t65 9q75 0 120 -39.5t45 -101.5
q0 -37 -17.5 -67t-42 -49.5t-49 -36t-42 -35t-17.5 -37.5v-57q0 -14 -13 -14h-19zM172 30q0 17 11.5 28.5t28.5 11.5t29 -11.5t12 -28.5t-12 -28.5t-29 -11.5q-16 0 -28 12t-12 28z" />
    <glyph glyph-name="at" unicode="@" horiz-adv-x="990" 
d="M48 224q0 215 125.5 350.5t334.5 135.5q196 0 309 -118t113 -303q0 -54 -10 -103t-31.5 -95t-64 -73.5t-99.5 -27.5q-92 0 -112 79q-18 -29 -54.5 -54t-88.5 -25q-81 0 -133 59.5t-52 152.5q0 92 57 150t139 58q36 0 66.5 -11t43.5 -22l13 -11l3 22q1 12 14 12h10
q13 0 13 -13v-251q0 -109 83 -109q80 0 121.5 74.5t41.5 187.5q0 170 -101 277t-282 107q-191 0 -305 -123t-114 -326q0 -144 76 -250.5t203 -161.5q11 -5 6 -16l-7 -16q-4 -10 -14 -6q-138 59 -221 176t-83 274zM328 202q0 -76 40.5 -123t104.5 -47q31 0 56.5 11t40 28
t22 30t10.5 23v189q-3 6 -14 17t-40.5 25.5t-64.5 14.5q-65 0 -110 -46.5t-45 -121.5z" />
    <glyph glyph-name="A" unicode="A" horiz-adv-x="653" 
d="M13 0q-11 0 -7 12l308 696q4 7 12 7h3q9 0 13 -7l305 -696q4 -12 -9 -12h-26q-10 0 -14 9l-81 184h-382l-80 -184q-5 -9 -14 -9h-28zM153 232h347l-171 403h-2z" />
    <glyph glyph-name="B" unicode="B" horiz-adv-x="623" 
d="M106 13v674q0 13 13 13h213q93 0 150 -49.5t57 -131.5q0 -57 -30.5 -99.5t-79.5 -62.5q58 -16 95 -57.5t37 -109.5q0 -84 -61.5 -137t-158.5 -53h-222q-13 0 -13 13zM153 376h186q69 0 109 39t40 102q0 65 -42 102t-114 37h-179v-280zM152 42h193q73 0 119 42t46 107
t-49 103.5t-122 38.5h-187v-291z" />
    <glyph glyph-name="C" unicode="C" horiz-adv-x="718" 
d="M56 349q0 150 106 255.5t256 105.5q141 0 243 -93q9 -9 1 -18l-16 -17q-8 -8 -17 1q-92 82 -211 82q-131 0 -221.5 -93t-90.5 -223t90.5 -222t221.5 -92q110 0 211 84q9 7 16 2l17 -17q9 -8 0 -17q-100 -97 -244 -97q-150 0 -256 104.5t-106 254.5z" />
    <glyph glyph-name="D" unicode="D" horiz-adv-x="738" 
d="M106 13v674q0 5 3.5 9t8.5 4h212q145 0 248.5 -102.5t103.5 -246.5q0 -146 -103 -248.5t-249 -102.5h-212q-5 0 -8.5 4t-3.5 9zM153 43h169q131 0 220.5 88.5t89.5 219.5q0 130 -89.5 218t-220.5 88h-169v-614z" />
    <glyph glyph-name="E" unicode="E" horiz-adv-x="598" 
d="M106 13v674q0 13 13 13h401q13 0 13 -13v-17q0 -13 -13 -13h-366v-276h317q13 0 13 -13v-17q0 -13 -13 -13h-317v-296h366q13 0 13 -13v-16q0 -13 -13 -13h-401q-13 0 -13 13z" />
    <glyph glyph-name="F" unicode="F" horiz-adv-x="573" 
d="M106 13v674q0 13 13 13h401q13 0 13 -13v-17q0 -13 -13 -13h-366v-304h317q13 0 13 -13q0 -29 -13 -29h-317l-1 -298q0 -13 -16 -13h-18q-13 0 -13 13z" />
    <glyph glyph-name="G" unicode="G" horiz-adv-x="743" 
d="M56 349q0 150 105.5 255.5t256.5 105.5q140 0 242 -93q10 -9 1 -18q-5 -6 -16 -17q-8 -9 -17 0q-90 84 -211 84q-130 0 -220.5 -92.5t-90.5 -222.5t90.5 -222.5t220.5 -92.5q55 0 105.5 13t72 24t30.5 18v188h-171q-13 0 -13 13v20q0 12 13 12h205q5 0 9 -3.5t4 -8.5
v-232q0 -16 -14 -26q-16 -10 -41 -22.5t-82.5 -27t-116.5 -14.5q-151 0 -256.5 104.5t-105.5 254.5z" />
    <glyph glyph-name="H" unicode="H" horiz-adv-x="755" 
d="M106 13v674q0 13 13 13h21q13 0 13 -13v-307h449v307q0 13 13 13h21q13 0 13 -13v-674q0 -13 -13 -13h-21q-13 0 -13 13v325h-449v-325q0 -13 -13 -13h-21q-13 0 -13 13z" />
    <glyph glyph-name="I" unicode="I" horiz-adv-x="260" 
d="M106 13v674q0 13 13 13h22q13 0 13 -13v-674q0 -13 -14 -13h-21q-13 0 -13 13z" />
    <glyph glyph-name="J" unicode="J" horiz-adv-x="391" 
d="M-25 65q-6 10 1 17l13 12q9 8 17 0q20 -20 28.5 -28t36.5 -21t58 -13q66 0 106 45.5t40 132.5v477q0 13 14 13h20q13 0 13 -13v-476q0 -104 -52 -162.5t-142 -58.5q-92 0 -153 75z" />
    <glyph glyph-name="K" unicode="K" horiz-adv-x="590" 
d="M106 13v672q0 15 15 15h18q15 0 15 -15v-309l340 317q8 7 20 7h28q8 0 9.5 -6t-3.5 -11l-348 -323l359 -343q5 -4 2.5 -10.5t-11.5 -6.5h-32q-12 0 -22 10l-342 332v-329q0 -13 -15 -13h-20q-13 0 -13 13z" />
    <glyph glyph-name="L" unicode="L" horiz-adv-x="489" 
d="M106 13v674q0 13 13 13h22q5 0 8.5 -4t3.5 -9v-645h319q13 0 13 -13v-18q0 -11 -13 -11h-353q-13 0 -13 13z" />
    <glyph glyph-name="M" unicode="M" horiz-adv-x="859" 
d="M50 13l142 690q2 7 9 7h11q7 0 10 -7l206 -614h2l207 614q3 7 10 7h11q7 0 9 -7l142 -690q3 -13 -11 -13h-24q-10 0 -12 11l-113 586h-2l-202 -599q-3 -8 -14 -8h-4q-11 0 -13 8l-202 599h-2l-113 -586q-2 -11 -12 -11h-24q-14 0 -11 13z" />
    <glyph glyph-name="N" unicode="N" horiz-adv-x="771" 
d="M106 13v684q0 13 15 13h17l480 -625h1v602q0 13 13 13h20q13 0 13 -13v-684q0 -13 -16 -13h-13q-7 0 -484 631h-1v-608q0 -13 -13 -13h-19q-13 0 -13 13z" />
    <glyph glyph-name="O" unicode="O" horiz-adv-x="833" 
d="M56 349q0 150 105 255.5t255 105.5q151 0 256 -105.5t105 -255.5q0 -151 -105 -255t-256 -104q-150 0 -255 104.5t-105 254.5zM100 349q0 -131 92.5 -223t223.5 -92t224 92t93 223t-93 224t-224 93t-223.5 -93t-92.5 -224z" />
    <glyph glyph-name="P" unicode="P" horiz-adv-x="594" 
d="M106 13v674q0 13 13 13h215q93 0 159.5 -66t66.5 -158q0 -94 -66.5 -160.5t-158.5 -66.5h-182v-236q0 -13 -16 -13h-18q-13 0 -13 13zM153 295h179q74 0 127.5 53.5t53.5 128.5q0 73 -53.5 124.5t-128.5 51.5h-178v-358z" />
    <glyph glyph-name="Q" unicode="Q" horiz-adv-x="834" 
d="M56 349q0 150 105 255.5t255 105.5q151 0 256 -105.5t105 -255.5q0 -113 -62 -203t-163 -130l119 -194q3 -4 1 -9.5t-8 -5.5h-33q-7 0 -13 10l-111 184q-44 -11 -91 -11q-150 0 -255 104.5t-105 254.5zM100 349q0 -131 92.5 -223t223.5 -92t224 92t93 223t-93 224
t-224 93t-223.5 -93t-92.5 -224z" />
    <glyph glyph-name="R" unicode="R" horiz-adv-x="650" 
d="M106 13v674q0 13 13 13h248q92 0 157.5 -61.5t65.5 -152.5q0 -74 -46 -131t-119 -78l146 -259q4 -6 2 -12t-9 -6h-31q-9 0 -14 9l-145 262q-13 -1 -37 -1h-184v-257q0 -13 -16 -13h-18q-13 0 -13 13zM154 312h211q73 0 125 50.5t52 123.5q0 71 -52.5 119.5t-125.5 48.5
h-210v-342z" />
    <glyph glyph-name="S" unicode="S" horiz-adv-x="543" 
d="M67 72q-11 9 -3 21l9 12q12 13 22 4q86 -77 185 -77q68 0 118 39.5t50 94.5q0 62 -47 99t-147 71q-100 35 -146.5 76t-46.5 121q0 30 12.5 59.5t36.5 56.5t67.5 44t99.5 17q44 0 87 -13t64 -25l21 -13q12 -9 4 -21q-5 -6 -8 -13q-9 -13 -22 -5q-71 47 -147 47
q-84 0 -126.5 -41t-42.5 -92q0 -59 41 -93t125 -62q115 -40 169.5 -85t54.5 -126q0 -74 -65 -126t-153 -52q-41 0 -80 10.5t-67 27t-42 26t-23 18.5z" />
    <glyph glyph-name="T" unicode="T" horiz-adv-x="472" 
d="M212 13v644h-191q-13 0 -13 15v15q0 13 13 13h430q13 0 13 -13v-17q0 -13 -13 -13h-192v-644q0 -13 -16 -13h-18q-13 0 -13 13z" />
    <glyph glyph-name="U" unicode="U" horiz-adv-x="720" 
d="M98 255v432q0 13 13 13h21q13 0 13 -13v-427q0 -99 58 -161.5t156 -62.5q99 0 157.5 62.5t58.5 160.5v428q0 13 14 13h20q13 0 13 -13v-432q0 -116 -72.5 -190.5t-190.5 -74.5q-117 0 -189 74.5t-72 190.5z" />
    <glyph glyph-name="V" unicode="V" horiz-adv-x="651" 
d="M308 -1l-302 688q-6 13 8 13h27q9 0 11 -7l270 -621h2l273 621q2 7 11 7h26q16 0 9 -14l-307 -687q-4 -9 -12 -9h-5q-8 0 -11 9z" />
    <glyph glyph-name="W" unicode="W" horiz-adv-x="896" 
d="M237 -3l-198 690q-3 13 11 13h24q10 0 12 -11l168 -586h2l176 598q3 9 15 9h2q12 0 15 -9l177 -598h2l167 586q2 11 12 11h24q14 0 11 -13l-198 -690q-2 -7 -9 -7h-11q-7 0 -10 7l-180 609h-2l-180 -609q-3 -7 -10 -7h-11q-7 0 -9 7z" />
    <glyph glyph-name="X" unicode="X" horiz-adv-x="565" 
d="M35 15l217 343l-205 327q-9 15 8 15h32q8 0 13 -6l181 -294h1l183 294q5 6 13 6h32q17 0 8 -15l-206 -327l219 -343q9 -15 -8 -15h-32q-9 0 -13 6l-196 309h-1l-193 -309q-4 -6 -13 -6h-32q-17 0 -8 15z" />
    <glyph glyph-name="Y" unicode="Y" horiz-adv-x="560" 
d="M253 13v327l-255 345q-4 6 -2 10.5t10 4.5h30q8 0 13 -6l228 -311l232 311q5 6 13 6h30q8 0 10 -4.5t-2 -10.5l-260 -344v-328q0 -13 -13 -13h-6h-6.5h-6.5t-6 1t-4.5 2.5t-3.5 4t-1 5.5z" />
    <glyph glyph-name="Z" unicode="Z" horiz-adv-x="533" 
d="M30 12v18l406 624v2h-362q-13 0 -13 15v16q0 13 13 13h412q13 0 13 -13v-16l-407 -626v-1h373q13 0 13 -13v-18q0 -13 -13 -13h-421q-14 0 -14 12z" />
    <glyph glyph-name="bracketleft" unicode="[" horiz-adv-x="330" 
d="M126 -260h165q13 0 13 -13v-15q0 -13 -13 -13h-195q-13 0 -13 13v975q0 13 13 13h195q13 0 13 -13v-15q0 -13 -13 -13h-165v-919z" />
    <glyph glyph-name="backslash" unicode="\" horiz-adv-x="327" 
d="M247 9l-221 677q-2 6 1.5 10t10.5 4h14q10 0 13 -8l221 -678q5 -14 -11 -14h-15q-10 0 -13 9z" />
    <glyph glyph-name="bracketright" unicode="]" horiz-adv-x="329" 
d="M39 -260h164v919h-164q-13 0 -13 13v15q0 13 13 13h194q13 0 13 -13v-975q0 -13 -13 -13h-194q-13 0 -13 13v15q0 13 13 13z" />
    <glyph glyph-name="asciicircum" unicode="^" horiz-adv-x="524" 
d="M46 400q-7 0 -9 5t3 11l211 291q5 7 11 7h3q6 0 11 -7l210 -291q5 -6 3 -11t-9 -5h-23q-10 0 -16 8l-178 247l-178 -247q-6 -8 -16 -8h-23z" />
    <glyph glyph-name="underscore" unicode="_" horiz-adv-x="393" 
d="M26 -23q0 13 13 13h315q13 0 13 -13v-10q0 -12 -13 -12h-315q-13 0 -13 12v10z" />
    <glyph glyph-name="grave" unicode="`" horiz-adv-x="302" 
d="M248 559l-172 79q-9 5 -4 15l10 20q5 9 17 3l164 -90q9 -5 6 -14l-5 -10q-4 -8 -16 -3z" />
    <glyph glyph-name="a" unicode="a" horiz-adv-x="427" 
d="M44 123q0 59 45.5 97t122.5 38q52 0 101 -18q0 73 -16.5 102.5t-71.5 29.5q-19 0 -37 -2.5t-31.5 -6.5t-24 -7.5t-18.5 -7t-9 -3.5q-11 -4 -15 8l-5 12q-4 11 6 15q5 3 18 9t47.5 13.5t71.5 7.5q36 0 60 -9t37.5 -22.5t20 -39t8 -46.5t1.5 -58v-222q0 -13 -13 -13h-12
q-9 0 -12 11l-4 36q-62 -57 -139 -57q-57 0 -94 36.5t-37 96.5zM85 124q0 -43 26.5 -69t68.5 -26t79 20t54 42v110q-46 21 -101 21q-57 0 -92 -27t-35 -71z" />
    <glyph glyph-name="b" unicode="b" 
d="M76 13v674q0 13 13 13h17q13 0 13 -13v-317q5 4 15.5 11t42.5 18t66 11q84 0 140 -60t56 -149q0 -88 -53.5 -149.5t-130.5 -61.5q-50 0 -86.5 20t-52.5 39l-3 -36q-1 -13 -14 -13h-10q-13 0 -13 13zM120 101q4 -7 15.5 -21t44.5 -32t71 -18q62 0 103.5 49.5t41.5 120.5
q0 72 -44.5 119.5t-113.5 47.5q-32 0 -61.5 -10.5t-42.5 -20.5l-14 -11v-224z" />
    <glyph glyph-name="c" unicode="c" horiz-adv-x="459" 
d="M46 200q0 89 62 149.5t148 60.5q52 0 91 -20t57 -43q8 -10 -2 -18l-10 -10q-10 -9 -21 2q-13 15 -43.5 30.5t-71.5 15.5q-69 0 -117 -47.5t-48 -118.5q0 -72 48 -120.5t116 -48.5q71 0 125 59q10 11 19 2l11 -10q8 -8 3 -16q-16 -25 -59 -51t-98 -26q-86 0 -148 60.5
t-62 149.5z" />
    <glyph glyph-name="d" unicode="d" 
d="M47 200q0 89 56 149.5t141 60.5q34 0 64.5 -10t44.5 -20l14 -10v317q0 13 13 13h18q5 0 8.5 -4t3.5 -9v-674q0 -13 -13 -13h-10q-13 0 -14 13l-3 35q-54 -58 -138 -58q-78 0 -131.5 61t-53.5 149zM91 200q0 -71 41 -120.5t103 -49.5q39 0 72 18t44.5 32t15.5 21v224
q-5 5 -14.5 12t-41 18.5t-63.5 11.5q-69 0 -113 -47.5t-44 -119.5z" />
    <glyph glyph-name="e" unicode="e" horiz-adv-x="467" 
d="M47 201q0 88 54 148.5t143 60.5q79 0 130 -51.5t51 -131.5q0 -39 -15 -39h-319q3 -66 46.5 -112t109.5 -46q63 0 118 37q12 8 18 0l10 -14q5 -7 -4 -16q-17 -17 -59.5 -32t-85.5 -15q-89 0 -143 60.5t-54 150.5zM92 224h289q0 62 -36 104t-101 42t-106.5 -41.5
t-45.5 -104.5z" />
    <glyph glyph-name="f" unicode="f" horiz-adv-x="313" 
d="M101 13v348h-60q-13 0 -13 13v13q0 13 13 13h60v137q0 85 41.5 129t109.5 44q36 0 67.5 -13.5t44.5 -29.5q7 -9 2 -16l-10 -14q-7 -11 -17 -1q-36 34 -87 34q-49 0 -78 -33t-29 -100v-137h148q13 0 13 -12v-15q0 -12 -13 -12h-148v-348q0 -13 -13 -13h-18q-13 0 -13 13z
" />
    <glyph glyph-name="g" unicode="g" horiz-adv-x="462" 
d="M35 34q0 30 15.5 56t27.5 35.5t23 15.5q-31 39 -31 100q0 73 48 121t127 48h164q13 0 13 -13v-11q0 -10 -9 -12l-72 -5q13 -7 25 -19t24.5 -41.5t12.5 -67.5q0 -69 -46 -117.5t-120 -48.5q-76 0 -109 36q-7 -3 -17 -9.5t-22 -24t-12 -38.5q0 -58 79 -58h145q68 0 108 -32
t40 -96q0 -66 -57.5 -114.5t-146.5 -48.5q-94 0 -144.5 45t-50.5 103q0 66 63 105q-24 5 -51 28.5t-27 62.5zM238 114q55 0 89 36.5t34 91.5q0 60 -35.5 94t-87.5 34q-57 0 -92 -36.5t-35 -91.5t33.5 -91.5t93.5 -36.5zM94 -157q0 -44 40.5 -78t109.5 -34q67 0 113 35t46 86
q0 38 -25 63t-77 25h-126q-8 -1 -25.5 -10t-36.5 -32.5t-19 -54.5z" />
    <glyph glyph-name="h" unicode="h" horiz-adv-x="495" 
d="M76 13v674q0 13 14 13h16q13 0 13 -13v-341q64 64 145 64q78 0 119.5 -47t41.5 -136v-214q0 -13 -13 -13h-18q-13 0 -13 13v214q0 69 -31 104.5t-88 35.5q-37 0 -73 -18t-49.5 -30.5t-20.5 -21.5v-284q0 -13 -13 -13h-19q-11 0 -11 13z" />
    <glyph glyph-name="i" unicode="i" horiz-adv-x="196" 
d="M98 596q-14 0 -24 9.5t-10 23.5t10 24.5t24 10.5t24 -10.5t10 -24.5t-10 -23.5t-24 -9.5zM76 13v374q0 13 13 13h18q13 0 13 -13v-374q0 -13 -13 -13h-20q-11 0 -11 13z" />
    <glyph glyph-name="j" unicode="j" horiz-adv-x="195" 
d="M97 596q-14 0 -24 9.5t-10 23.5t10 24.5t24 10.5t24 -10.5t10 -24.5t-10 -23.5t-24 -9.5zM76 -137v524q0 13 13 13h17q13 0 13 -13v-524q0 -86 -39 -129.5t-107 -43.5q-35 0 -65.5 13.5t-46.5 29.5q-7 7 -2 14l10 16q7 10 17 0q43 -33 87 -33q103 0 103 133z" />
    <glyph glyph-name="k" unicode="k" horiz-adv-x="428" 
d="M76 13v674q0 13 13 13h17q13 0 13 -13v-448l213 155q8 6 16 6h29q5 0 7 -3.5t1 -8t-5 -6.5l-215 -158l241 -207q6 -5 3.5 -11t-8.5 -6h-31q-10 0 -20 8l-231 199v-194q0 -13 -13 -13h-19q-11 0 -11 13z" />
    <glyph glyph-name="l" unicode="l" horiz-adv-x="196" 
d="M76 13v674q0 13 13 13h18q13 0 13 -13v-674q0 -13 -13 -13h-20q-11 0 -11 13z" />
    <glyph glyph-name="m" unicode="m" horiz-adv-x="763" 
d="M76 13v374q0 13 13 13h12q9 0 11 -10l5 -43q8 11 22.5 23.5t46.5 26t69 13.5q92 0 131 -73q9 12 25.5 26.5t52 30.5t72.5 16q156 0 156 -183v-214q0 -13 -13 -13h-20q-11 0 -11 13v214q0 140 -115 140q-77 0 -132 -68q9 -31 9 -72v-214q0 -13 -13 -13h-19q-12 0 -12 13
v214q0 69 -30 104.5t-86 35.5q-36 0 -68 -17t-44 -30t-18 -22v-285q0 -13 -13 -13h-20q-11 0 -11 13z" />
    <glyph glyph-name="n" unicode="n" horiz-adv-x="495" 
d="M76 13v374q0 13 14 13h10q10 0 12 -10l4 -43q10 11 26 23t51 26t71 14q82 0 121.5 -48t39.5 -135v-214q0 -13 -13 -13h-18q-13 0 -13 13v214q0 69 -31 104.5t-88 35.5q-37 0 -72.5 -17.5t-49.5 -30.5t-21 -21v-285q0 -13 -13 -13h-19q-11 0 -11 13z" />
    <glyph glyph-name="o" unicode="o" horiz-adv-x="494" 
d="M46 201q0 86 58.5 147.5t142.5 61.5t142.5 -61.5t58.5 -147.5q0 -88 -58.5 -149.5t-142.5 -61.5t-142.5 61.5t-58.5 149.5zM89 201q0 -71 45.5 -120.5t112.5 -49.5q66 0 111.5 49.5t45.5 120.5q0 69 -45.5 118t-111.5 49t-112 -49t-46 -118z" />
    <glyph glyph-name="p" unicode="p" horiz-adv-x="487" 
d="M119 31v-318q0 -13 -13 -13h-17q-13 0 -13 13v674q0 13 14 13h11q11 0 12 -10l3 -28q58 48 131 48q83 0 138 -61t55 -149q0 -89 -57 -149.5t-145 -60.5q-74 0 -119 41zM120 79q2 -4 14.5 -14t40.5 -21.5t58 -11.5q72 0 117.5 48.5t45.5 120.5q0 71 -42.5 119.5
t-109.5 48.5q-35 0 -65.5 -14t-42.5 -25t-16 -17v-234z" />
    <glyph glyph-name="q" unicode="q" 
d="M47 200q0 89 54.5 149.5t137.5 60.5q73 0 131 -48l4 27q1 11 13 11h11q5 0 8.5 -4t3.5 -9v-674q0 -5 -3.5 -9t-8.5 -4h-18q-13 0 -13 13v319q-46 -42 -118 -42q-88 0 -145 60t-57 150zM91 201q0 -72 45 -120.5t117 -48.5q30 0 58.5 11t40 20t15.5 15v235q-5 7 -16 17
t-42 24.5t-66 14.5q-68 0 -110 -48.5t-42 -119.5z" />
    <glyph glyph-name="r" unicode="r" horiz-adv-x="324" 
d="M76 13v374q0 13 13 13h12q10 0 12 -11l4 -41q44 62 125 62q30 0 62 -12q16 -5 11 -18l-8 -20q-4 -10 -16 -5q-30 12 -52 12q-35 0 -64.5 -17.5t-40 -30.5t-14.5 -21v-285q0 -13 -13 -13h-20q-11 0 -11 13z" />
    <glyph glyph-name="s" unicode="s" horiz-adv-x="370" 
d="M57 35q-9 6 -4 14l10 16q7 11 18 1q49 -39 107 -39q42 0 69 20.5t27 50.5q0 31 -26 49.5t-86 40.5q-60 21 -91.5 48t-31.5 70q0 39 34 71.5t97 32.5q64 0 113 -32q11 -7 4 -19l-6 -11q-7 -12 -19 -5q-42 28 -92 28q-43 0 -64.5 -20t-21.5 -44q0 -28 23 -45t72 -35
q37 -14 55.5 -22t42 -23.5t33.5 -35t10 -45.5q0 -45 -41.5 -78t-100.5 -33q-73 0 -131 45z" />
    <glyph glyph-name="t" unicode="t" horiz-adv-x="329" 
d="M93 103v258h-47q-12 0 -12 13v16q0 10 12 10h47v109q0 13 13 13l17 1q13 0 13 -13v-110h139q13 0 13 -13v-13q0 -13 -13 -13h-139v-255q0 -40 9.5 -56.5t42.5 -16.5q47 0 91 27q10 6 16 -4l7 -12q6 -11 -3 -17q-46 -37 -116 -37q-57 0 -73.5 28t-16.5 85z" />
    <glyph glyph-name="u" unicode="u" horiz-adv-x="485" 
d="M70 172v215q0 13 13 13h18q13 0 13 -13v-215q0 -69 30.5 -104.5t88.5 -35.5q37 0 70 18t45 31t17 21v285q0 13 13 13h18q13 0 13 -13v-374q0 -13 -13 -13h-12q-10 0 -12 12l-4 39q-8 -11 -22.5 -23t-47 -25t-68.5 -13q-160 0 -160 182z" />
    <glyph glyph-name="v" unicode="v" horiz-adv-x="408" 
d="M189 -1l-172 386q-7 15 6 15h22q9 0 13 -9l145 -330h1l146 330q4 9 13 9h22q13 0 6 -15l-174 -386q-5 -9 -12 -9h-4q-8 0 -12 9z" />
    <glyph glyph-name="w" unicode="w" horiz-adv-x="606" 
d="M154 -1l-120 385q-5 16 6 16h22q10 0 13 -9l94 -315h1l119 325q3 9 12 9h4q9 0 12 -9l119 -325h1l94 315q3 9 13 9h22q11 0 6 -16l-120 -385q-3 -9 -12 -9h-4q-9 0 -12 9l-121 337h-1l-120 -337q-3 -9 -12 -9h-4q-9 0 -12 9z" />
    <glyph glyph-name="x" unicode="x" horiz-adv-x="418" 
d="M35 14l147 191l-139 181q-4 5 -2 9.5t8 4.5h26q9 0 15 -9l117 -155h1l118 155q6 9 15 9h26q6 0 8 -4.5t-2 -9.5l-138 -180l145 -192q4 -5 2 -9.5t-8 -4.5h-26q-9 0 -15 9l-125 167h-1l-125 -167q-6 -9 -15 -9h-26q-6 0 -8 4.5t2 9.5z" />
    <glyph glyph-name="y" unicode="y" horiz-adv-x="443" 
d="M204 4l-189 380q-8 16 6 16h22q9 0 13 -9l171 -338h2l156 338q5 9 13 9h22q14 0 6 -16l-314 -676q-3 -8 -13 -8h-23q-13 0 -7 14z" />
    <glyph glyph-name="z" unicode="z" horiz-adv-x="371" 
d="M34 11v11l235 335v3h-204q-12 0 -12 13v14q0 13 12 13h259q8 0 11.5 -6t-0.5 -13l-234 -338v-3h207q13 0 13 -13v-14q0 -13 -13 -13h-262q-12 0 -12 11z" />
    <glyph glyph-name="braceleft" unicode="{" horiz-adv-x="365" 
d="M108 -68v164q0 65 -73 89q-9 3 -9 9v16q0 6 9 9q73 24 73 89v160q0 66 19 115t51 75.5t68.5 39t78.5 12.5q14 0 14 -12v-12q0 -10 -10 -12q-84 -6 -131 -57t-47 -150v-159q0 -31 -17 -57.5t-29 -35t-22 -13.5v-1q3 -1 9 -4.5t17 -12.5t20 -20.5t15.5 -29.5t6.5 -38v-163
q0 -99 47 -150t131 -57q10 -2 10 -12v-12q0 -12 -14 -12q-42 0 -78.5 12.5t-68.5 39t-51 75.5t-19 115z" />
    <glyph glyph-name="bar" unicode="|" horiz-adv-x="195" 
d="M82 -288v1034q0 13 13 13h6q12 0 12 -13v-1034q0 -12 -13 -12h-5q-13 0 -13 12z" />
    <glyph glyph-name="braceright" unicode="}" horiz-adv-x="365" 
d="M214 -67v163q0 24 9 44.5t23 33.5t21.5 18.5t14.5 8.5v1q-6 3 -13.5 8.5t-22 18t-23.5 33.5t-9 46v159q0 99 -47 150t-131 57q-10 2 -10 12v12q0 12 14 12q42 0 78.5 -12.5t68.5 -39t51 -75.5t19 -115v-160q0 -65 73 -89q9 -3 9 -9v-16q0 -6 -9 -9q-73 -24 -73 -89v-164
q0 -66 -19 -115t-51 -75.5t-68.5 -39t-78.5 -12.5q-14 0 -14 12v12q0 10 10 12q84 6 131 57t47 150z" />
    <glyph glyph-name="asciitilde" unicode="~" horiz-adv-x="574" 
d="M81 239l-13 10q-8 7 -2 16q2 4 6 10.5t17 22.5t27 28.5t36.5 23t46.5 10.5q53 0 105 -54q42 -45 79 -45q10 0 19.5 2t17.5 6.5t15 9t13.5 11.5t11 12t9.5 12t7 10.5t5 8.5l3 5q8 11 17 3l13 -9q10 -7 3 -16q-2 -4 -6 -10.5t-17 -22.5t-27.5 -28.5t-37 -23t-46.5 -10.5
q-47 0 -102 53q-45 45 -82 45q-10 0 -19.5 -2t-17.5 -6.5t-15 -9t-13 -11t-10.5 -12t-9.5 -12.5t-7 -10.5t-5 -8.5l-3 -5q-7 -10 -18 -3z" />
    <glyph glyph-name="uni00A0" unicode="&#xa0;" horiz-adv-x="262" 
d="M202 558l-169 77q-14 7 -9 18l10 20q6 10 17 3l165 -87q10 -6 6 -14l-6 -13q-4 -8 -14 -4z" />
    <glyph glyph-name="exclamdown" unicode="&#xa1;" horiz-adv-x="225" 
d="M112 330q-17 0 -28.5 11.5t-11.5 28.5t11.5 28.5t28.5 11.5t29 -12t12 -28q0 -17 -12 -28.5t-29 -11.5zM95 119q0 4 4 8t9 4h8q5 0 9 -3.5t4 -8.5l10 -284v-122q0 -13 -15 -13h-25q-13 0 -13 13v121z" />
    <glyph glyph-name="cent" unicode="&#xa2;" horiz-adv-x="445" 
d="M166 4q-58 23 -94.5 75.5t-36.5 120.5q0 89 62 149.5t148 60.5q16 0 31 -3l10 40q3 10 16 8l5 -1q13 -2 9 -16l-10 -38q59 -17 87 -53q8 -10 -2 -18l-11 -10q-9 -8 -20 3q-25 25 -65 36l-87 -323q18 -3 36 -3q14 0 27 2t23 5t20 8t17 9t14.5 10t11 9.5t8.5 8t6 5.5
q10 11 19 2l8 -7q9 -9 4 -17q-16 -25 -59 -51t-98 -26q-30 0 -49 5l-23 -90q-3 -10 -16 -8l-5 1q-13 2 -9 15zM178 46l86 319q-12 2 -19 2q-69 0 -117 -47.5t-48 -118.5q0 -53 27 -94.5t71 -60.5z" />
    <glyph glyph-name="sterling" unicode="&#xa3;" horiz-adv-x="518" 
d="M82 14v9q23 53 36.5 108t11.5 90q0 35 -8 81h-43q-13 0 -13 15v4q0 5 4 8.5t9 3.5h36q-1 3 -11.5 43t-15.5 70t-5 62q0 89 59 145.5t144 56.5q60 0 109 -25t66 -48q8 -11 -2 -22l-8 -9q-10 -10 -22 2q-60 60 -145 60q-65 0 -111 -45t-46 -116q0 -31 5.5 -62.5t15.5 -68
t11 -43.5h202q13 0 13 -14v-4q0 -13 -13 -13h-194q6 -36 6 -81q-2 -98 -37 -180h300q12 0 12 -14v-15q0 -12 -12 -12h-342q-5 0 -9 4.5t-3 9.5z" />
    <glyph glyph-name="currency" unicode="&#xa4;" horiz-adv-x="491" 
d="M97 162l-10 12q-11 8 -2 16l53 53q-26 35 -26 79t26 78l-53 52q-7 10 2 18l10 11q8 7 19 2l51 -53q36 27 79 26.5t78 -27.5l53 53q9 9 18 -3l11 -9q7 -10 0 -19l-51 -51q25 -34 25 -78t-25 -78l51 -51q7 -10 -3 -19l-10 -11q-9 -8 -18 -1l-51 51q-35 -26 -78.5 -26
t-78.5 26l-51 -53q-9 -5 -19 2zM179 253q28 -27 68 -27.5t68 27.5t28 68t-28 68t-68 28t-68 -28t-28 -68t28 -68z" />
    <glyph glyph-name="yen" unicode="&#xa5;" horiz-adv-x="620" 
d="M133 139q-12 0 -12 12v6q0 13 12 13h150v88h-150q-12 0 -12 12v6q0 13 12 13h150v51l-255 345q-4 6 -2 10.5t10 4.5h30q8 0 13 -6l228 -312l232 312q5 6 13 6h30q8 0 10 -4.5t-2 -10.5l-260 -344v-52h150q12 0 12 -13v-6q0 -12 -12 -12h-150v-88h150q12 0 12 -13v-6
q0 -12 -12 -12h-150v-126q0 -13 -13 -13h-22q-12 0 -12 13v126h-150z" />
    <glyph glyph-name="brokenbar" unicode="&#xa6;" horiz-adv-x="359" 
d="M177 388q-13 0 -13 13v345q0 13 13 13h6q12 0 12 -13v-345q0 -13 -13 -13h-5zM164 58q0 13 13 13h6q12 0 12 -13v-346q0 -12 -13 -12h-5q-13 0 -13 12v346z" />
    <glyph glyph-name="section" unicode="&#xa7;" horiz-adv-x="533" 
d="M72 -114q9 11 19 1q11 -11 29 -24.5t62 -32t87 -18.5q64 0 113 34.5t49 87.5q0 58 -46.5 95t-141.5 69q-93 31 -143 75t-50 116q0 62 65 120q-64 60 -64 130q0 65 54.5 118t160.5 53q44 0 86.5 -13t63.5 -25l21 -13q13 -7 4 -20l-10 -15q-8 -11 -20 -4q-80 48 -145 48
q-85 0 -127 -39t-42 -90q0 -55 42 -90.5t122 -60.5q112 -37 166 -79t54 -115q0 -13 -3 -25t-9 -23.5t-11 -20.5t-14 -19t-13.5 -14.5l-12.5 -12.5l-8 -8q70 -58 70 -136q0 -71 -63 -118t-149 -47q-51 0 -101 19t-70.5 33.5t-34.5 26.5q-11 11 -3 21zM257 143q66 -20 116 -49
l7 6q7 6 10.5 9.5t10.5 11t11.5 14.5t9 16t7 19.5t2.5 20.5q0 56 -45 89t-143 66q-62 17 -94 41q-15 -14 -22 -21t-18.5 -29.5t-11.5 -45.5q0 -56 39.5 -88t120.5 -60z" />
    <glyph glyph-name="dieresis" unicode="&#xa8;" horiz-adv-x="414" 
d="M319 596q-14 0 -23.5 9.5t-9.5 23.5q0 15 9.5 25t23.5 10q15 0 25 -10t10 -25q0 -14 -10 -23.5t-25 -9.5zM128 596q-14 0 -24 9.5t-10 23.5q0 15 10 25t24 10q15 0 24.5 -10t9.5 -25q0 -14 -9.5 -23.5t-24.5 -9.5z" />
    <glyph glyph-name="copyright" unicode="&#xa9;" horiz-adv-x="833" 
d="M56 350q0 149 105.5 254.5t254.5 105.5t255 -106t106 -254q0 -149 -106 -254.5t-255 -105.5t-254.5 105.5t-105.5 254.5zM95 350q0 -133 94 -227t227 -94t227 94t94 227t-94 226.5t-227 93.5t-227 -93.5t-94 -226.5zM235 348q0 79 55.5 134.5t134.5 55.5q70 0 116 -38
q11 -9 2 -19l-9 -11q-7 -9 -17 -1q-37 29 -91 29q-62 0 -104.5 -43.5t-42.5 -105.5t42.5 -105t104.5 -43q49 0 90 31q11 8 19 -2l9 -12q6 -10 -1 -17q-47 -43 -118 -43q-79 0 -134.5 55.5t-55.5 134.5z" />
    <glyph glyph-name="ordfeminine" unicode="&#xaa;" horiz-adv-x="324" 
d="M135 403q-41 0 -68 27t-27 71q0 43 33 70t89 27q41 0 70 -11q0 52 -11 71.5t-49 19.5q-39 0 -86 -20q-9 -3 -11 5l-4 13q-3 8 5 12q44 22 98 22q27 0 44.5 -7.5t27 -17t14 -30.5t5.5 -36t1 -45v-154q0 -10 -10 -10h-11q-8 0 -10 8l-3 23q-45 -38 -97 -38zM138 434
q29 0 55 13.5t38 29.5v80q-39 14 -71 14q-39 0 -64 -20t-25 -49q0 -30 19 -49t48 -19z" />
    <glyph glyph-name="guillemotleft" unicode="&#xab;" horiz-adv-x="405" 
d="M206 199q-6 7 0 17l108 154q6 9 16 9h16q6 0 7.5 -5.5t-2.5 -12.5l-94 -153l94 -157q4 -7 2.5 -12.5t-7.5 -5.5h-16q-10 0 -16 9zM154 42l-108 157q-6 7 0 17l108 154q6 9 16 9h16q6 0 7.5 -5.5t-2.5 -12.5l-94 -153l94 -157q4 -7 2.5 -12.5t-7.5 -5.5h-16q-10 0 -16 9z
" />
    <glyph glyph-name="logicalnot" unicode="&#xac;" horiz-adv-x="531" 
d="M61 327q-13 0 -13 13v15q0 13 13 13h385q12 0 12 -13v-200q0 -12 -13 -12h-16q-13 0 -13 12v172h-355z" />
    <glyph glyph-name="uni00AD" unicode="&#xad;" horiz-adv-x="347" 
d="M60 231q-12 0 -12 13v11q0 13 12 13h226q13 0 13 -13v-11q0 -13 -13 -13h-226z" />
    <glyph glyph-name="registered" unicode="&#xae;" horiz-adv-x="834" 
d="M56 350q0 149 105.5 254.5t254.5 105.5t255 -106t106 -254q0 -149 -106 -254.5t-255 -105.5t-254.5 105.5t-105.5 254.5zM95 350q0 -133 94 -227t227 -94t227 94t94 227t-94 226.5t-227 93.5t-227 -93.5t-94 -226.5zM288 180v343q0 13 12 13h146q53 0 90 -29t37 -84
q0 -49 -29 -77t-66 -35l70 -128q3 -5 1 -10t-9 -5h-23q-9 0 -14 10l-67 130h-14h-94v-128q0 -13 -12 -13h-16q-12 0 -12 13zM328 345h118q35 0 60.5 21.5t25.5 56.5q0 77 -98 77h-106v-155z" />
    <glyph glyph-name="macron" unicode="&#xaf;" horiz-adv-x="414" 
d="M71 595q-13 0 -13 12v13q0 13 13 13h272q13 0 13 -13v-13q0 -12 -13 -12h-272z" />
    <glyph glyph-name="degree" unicode="&#xb0;" horiz-adv-x="350" 
d="M175 435q-58 0 -98 40t-40 98t40 98t98 40q57 0 97.5 -40.5t40.5 -97.5t-40.5 -97.5t-97.5 -40.5zM175 470q41 0 71.5 30.5t30.5 72.5q0 41 -30.5 71.5t-71.5 30.5q-42 0 -72.5 -30.5t-30.5 -71.5q0 -42 30.5 -72.5t72.5 -30.5z" />
    <glyph glyph-name="plusminus" unicode="&#xb1;" horiz-adv-x="614" 
d="M286 256v126h-171q-13 0 -13 13v15q0 13 13 13h171v168q0 12 13 12h16q13 0 13 -12v-168h172q12 0 12 -13v-15q0 -13 -12 -13h-172v-126q0 -13 -13 -13h-16q-13 0 -13 13zM102 87v15q0 13 13 13h385q12 0 12 -13v-15q0 -13 -12 -13h-385q-13 0 -13 13z" />
    <glyph glyph-name="twosuperior" unicode="&#xb2;" horiz-adv-x="320" 
d="M63 504q-9 0 -9 8v9l139 130q35 33 36 66q0 24 -19 42t-53 18q-35 0 -68 -33q-5 -6 -10 -1l-13 12q-5 5 -1 10t11 12.5t31.5 20t51.5 12.5q50 0 78 -26t28 -64q0 -45 -46 -88l-106 -97h143q7 0 7 -8v-15q0 -8 -7 -8h-193z" />
    <glyph glyph-name="threesuperior" unicode="&#xb3;" horiz-adv-x="316" 
d="M157 494q-71 0 -105 41q-6 5 0 11l11 11q7 7 13 0l4 -4q4 -4 6.5 -6t8 -5.5t11.5 -6t13.5 -5t17 -4t19.5 -1.5q34 0 55.5 16t21.5 41q0 24 -21 40.5t-60 16.5h-45q-8 0 -8 10v12q0 8 8 8h45q32 0 52.5 14t20.5 41q0 24 -19 39t-49 15q-41 0 -71 -30q-6 -6 -10 -1l-13 11
q-6 6 -1 11q4 5 11.5 11.5t33 18t52.5 11.5q45 0 74 -22t29 -60q0 -23 -15.5 -43t-36.5 -29q2 -1 6.5 -2.5t15 -8t18.5 -14t14.5 -21.5t6.5 -30q0 -37 -32 -61.5t-82 -24.5z" />
    <glyph glyph-name="acute" unicode="&#xb4;" horiz-adv-x="302" 
d="M92 558q-10 -4 -14 4l-6 13q-4 8 6 14l165 87q11 7 17 -3l10 -20q5 -11 -9 -18z" />
    <glyph glyph-name="mu" unicode="&#xb5;" horiz-adv-x="505" 
d="M122 42v-329q0 -13 -14 -13h-17q-13 0 -13 13v674q0 13 13 13h18q13 0 13 -13v-215q0 -69 30.5 -104.5t88.5 -35.5q37 0 70 18t45 31t17 21v285q0 13 13 13h18q13 0 13 -13v-374q0 -13 -13 -13h-12q-10 0 -12 12l-4 39q-8 -11 -22.5 -23t-47 -25t-68.5 -13q-38 0 -70 15
t-46 37z" />
    <glyph glyph-name="paragraph" unicode="&#xb6;" horiz-adv-x="685" 
d="M223 283q-86 0 -141.5 62t-55.5 145q0 87 57 148.5t140 61.5h428q13 0 13 -13v-12q0 -13 -13 -13h-107v-949q0 -13 -13 -13h-11q-13 0 -13 13v949h-175v-949q0 -13 -13 -13h-11q-13 0 -13 13v570h-72z" />
    <glyph glyph-name="periodcentered" unicode="&#xb7;" horiz-adv-x="233" 
d="M117 221q-17 0 -29 12t-12 28q0 17 12 28.5t29 11.5t28.5 -11.5t11.5 -28.5t-11.5 -28.5t-28.5 -11.5z" />
    <glyph glyph-name="cedilla" unicode="&#xb8;" horiz-adv-x="247" 
d="M72 0h36v-54q48 -6 77.5 -30.5t29.5 -66.5q0 -40 -28 -68.5t-70 -28.5q-27 0 -48.5 10.5t-29.5 23.5q-7 11 1 18l10 8q7 6 16 -3q18 -21 51 -21q26 0 42.5 17.5t16.5 42.5q0 57 -92 68q-12 3 -12 13v71z" />
    <glyph glyph-name="onesuperior" unicode="&#xb9;" horiz-adv-x="187" 
d="M98 504q-8 0 -8 8v241l-47 -28q-6 -3 -9 2l-6 10q-3 6 3 11l73 52h12q10 0 10 -8v-280q0 -8 -8 -8h-20z" />
    <glyph glyph-name="ordmasculine" unicode="&#xba;" horiz-adv-x="331" 
d="M165 394q-57 0 -89.5 42t-32.5 115q0 74 32 116.5t90 42.5t90.5 -42t32.5 -117q0 -73 -32.5 -115t-90.5 -42zM165 427q41 0 64 32.5t23 91.5t-23 93t-64 34q-40 0 -63 -34t-23 -93q0 -58 22.5 -91t63.5 -33z" />
    <glyph glyph-name="guillemotright" unicode="&#xbb;" horiz-adv-x="405" 
d="M214 51l94 157l-94 153q-4 7 -2.5 12.5t7.5 5.5h16q10 0 16 -9l108 -154q6 -10 0 -17l-108 -157q-6 -9 -16 -9h-16q-6 0 -7.5 5.5t2.5 12.5zM59 33q-6 0 -7.5 5.5t2.5 12.5l94 157l-94 153q-4 7 -2.5 12.5t7.5 5.5h16q10 0 16 -9l108 -154q6 -10 0 -17l-108 -157
q-6 -9 -16 -9h-16z" />
    <glyph glyph-name="onequarter" unicode="&#xbc;" horiz-adv-x="635" 
d="M75 14l384 681q3 5 13 5h15q15 0 8 -14l-384 -681q-3 -5 -13 -5h-15q-15 0 -8 14zM117 404q-8 0 -8 8v241l-47 -28q-6 -3 -9 2l-6 10q-3 6 3 11l73 52h12q10 0 10 -8v-280q0 -8 -8 -8h-20zM315 78v9l189 209h14q10 0 10 -9v-185h39q9 0 9 -8v-16q0 -8 -9 -8h-39v-61
q0 -9 -10 -9h-17q-10 0 -10 9v60h-167q-9 0 -9 9zM372 103h119v130z" />
    <glyph glyph-name="onehalf" unicode="&#xbd;" horiz-adv-x="669" 
d="M75 14l384 681q3 5 13 5h15q15 0 8 -14l-384 -681q-3 -5 -13 -5h-15q-15 0 -8 14zM117 404q-8 0 -8 8v241l-47 -28q-6 -3 -9 2l-6 10q-3 6 3 11l73 52h12q10 0 10 -8v-280q0 -8 -8 -8h-20zM387 8v9l139 130q35 33 36 66q0 24 -19 42t-53 18q-35 0 -68 -33q-5 -6 -10 -1
l-13 12q-5 5 -1 10t11 12.5t31.5 20t51.5 12.5q50 0 78 -26t28 -64q0 -45 -46 -88l-106 -97h143q7 0 7 -8v-15q0 -8 -7 -8h-193q-9 0 -9 8z" />
    <glyph glyph-name="threequarters" unicode="&#xbe;" horiz-adv-x="706" 
d="M154 394q-71 0 -105 41q-5 5 0 11l11 11q6 7 13 0l4 -4q4 -4 6.5 -6t8 -5.5t11.5 -6t13.5 -5t17 -4t19.5 -1.5q34 0 55.5 16t21.5 41q0 24 -21 40.5t-60 16.5h-45q-8 0 -8 10v12q0 8 8 8h45q32 0 52.5 14t20.5 41q0 24 -19 39t-49 15q-41 0 -71 -30q-5 -6 -10 -1l-13 11
q-6 6 -1 11q4 5 11.5 11.5t33 18t52.5 11.5q45 0 74 -22t29 -60q0 -23 -15.5 -43t-36.5 -29q2 -1 6.5 -2.5t15 -8t18.5 -14t14.5 -21.5t6.5 -30q0 -37 -32 -61.5t-82 -24.5zM145 14l384 681q3 5 13 5h15q15 0 8 -14l-384 -681q-3 -5 -13 -5h-15q-15 0 -8 14zM385 78v9
l189 209h14q10 0 10 -9v-185h39q9 0 9 -8v-16q0 -8 -9 -8h-39v-61q0 -9 -10 -9h-17q-10 0 -10 9v60h-167q-9 0 -9 9zM442 103h119v130z" />
    <glyph glyph-name="questiondown" unicode="&#xbf;" horiz-adv-x="239" 
d="M125 330q-17 0 -29 11.5t-12 28.5t12 28.5t29 11.5t28.5 -12t11.5 -28q0 -17 -11.5 -28.5t-28.5 -11.5zM102 56v57q0 14 13 14h19q12 0 12 -14v-58q0 -32 -26 -61t-57.5 -48t-57.5 -48.5t-26 -63.5q0 -42 33.5 -73t89.5 -31q19 0 36.5 3t31 9t24.5 12t20 14t14.5 13.5
t11 11.5t6.5 7q7 7 17 1l10 -7q11 -7 3 -19q-2 -3 -6.5 -9t-20.5 -20.5t-35 -26t-50 -20.5t-65 -9q-75 0 -120 39.5t-45 101.5q0 37 17.5 67t42 49.5t49 36t42 35t17.5 37.5z" />
    <glyph glyph-name="Agrave" unicode="&#xc0;" horiz-adv-x="653" 
d="M13 0q-11 0 -7 12l308 696q4 7 12 7h3q9 0 13 -7l305 -696q4 -12 -9 -12h-26q-10 0 -14 9l-81 184h-382l-80 -184q-5 -9 -14 -9h-28zM153 232h347l-171 403h-2zM418 782l-172 79q-9 5 -4 15l10 20q5 9 17 3l164 -90q9 -5 6 -14l-5 -10q-4 -8 -16 -3z" />
    <glyph glyph-name="Aacute" unicode="&#xc1;" horiz-adv-x="653" 
d="M13 0q-11 0 -7 12l308 696q4 7 12 7h3q9 0 13 -7l305 -696q4 -12 -9 -12h-26q-10 0 -14 9l-81 184h-382l-80 -184q-5 -9 -14 -9h-28zM153 232h347l-171 403h-2zM262 782q-12 -5 -16 3l-5 10q-3 9 6 14l164 90q12 6 17 -3l10 -20q5 -10 -4 -15z" />
    <glyph glyph-name="Acircumflex" unicode="&#xc2;" horiz-adv-x="653" 
d="M13 0q-11 0 -7 12l308 696q4 7 12 7h3q9 0 13 -7l305 -696q4 -12 -9 -12h-26q-10 0 -14 9l-81 184h-382l-80 -184q-5 -9 -14 -9h-28zM153 232h347l-171 403h-2zM217 768q-9 -6 -15 2l-9 11q-5 7 4 14l121 98q5 5 10 5h3q5 0 10 -5l121 -98q9 -7 4 -14l-9 -11
q-6 -8 -15 -2l-113 84z" />
    <glyph glyph-name="Atilde" unicode="&#xc3;" horiz-adv-x="653" 
d="M13 0q-11 0 -7 12l308 696q4 7 12 7h3q9 0 13 -7l305 -696q4 -12 -9 -12h-26q-10 0 -14 9l-81 184h-382l-80 -184q-5 -9 -14 -9h-28zM153 232h347l-171 403h-2zM199 799l-12 5q-10 3 -6 14q24 61 57 78q17 8 36 8q24 0 41 -14t24.5 -31.5t19.5 -31.5t28 -14q37 0 57 59
q4 13 15 7l11 -4q8 -4 6 -13q-2 -8 -6 -17.5t-14 -27.5t-29 -29.5t-43 -11.5t-40.5 14.5t-24.5 31.5t-20.5 31.5t-27.5 14.5q-37 0 -57 -62q-3 -12 -15 -7z" />
    <glyph glyph-name="Adieresis" unicode="&#xc4;" horiz-adv-x="653" 
d="M13 0q-11 0 -7 12l308 696q4 7 12 7h3q9 0 13 -7l305 -696q4 -12 -9 -12h-26q-10 0 -14 9l-81 184h-382l-80 -184q-5 -9 -14 -9h-28zM153 232h347l-171 403h-2zM435 801q-14 0 -24 9.5t-10 23.5q0 15 10 25t24 10q15 0 25 -10t10 -25q0 -14 -10 -23.5t-25 -9.5zM226 801
q-14 0 -24 9.5t-10 23.5q0 15 10 25t24 10q15 0 25 -10t10 -25q0 -14 -10 -23.5t-25 -9.5z" />
    <glyph glyph-name="Aring" unicode="&#xc5;" horiz-adv-x="653" 
d="M13 0q-11 0 -7 12l308 696q4 7 12 7h3q9 0 13 -7l305 -696q4 -12 -9 -12h-26q-10 0 -14 9l-81 184h-382l-80 -184q-5 -9 -14 -9h-28zM153 232h347l-171 403h-2zM331 754q-45 0 -75.5 30.5t-30.5 75.5t30.5 76t75.5 31q44 0 75.5 -31t31.5 -76t-31 -75.5t-76 -30.5z
M331 786q30 0 52 22t22 52t-22 52t-52 22t-52 -22t-22 -52t22 -52t52 -22z" />
    <glyph glyph-name="AE" unicode="&#xc6;" horiz-adv-x="915" 
d="M-4 0q-15 0 -4 17l425 666q10 17 25 17h393q13 0 13 -13v-16q0 -13 -13 -13h-369v-277h321q13 0 13 -13v-17q0 -13 -13 -13h-321v-296h369q13 0 13 -14v-15q0 -13 -13 -13h-400q-13 0 -13 13v180h-266l-116 -184q-6 -9 -16 -9h-28zM179 232h243v382z" />
    <glyph glyph-name="Ccedilla" unicode="&#xc7;" horiz-adv-x="718" 
d="M56 349q0 150 106 255.5t256 105.5q141 0 243 -93q9 -9 1 -18l-16 -17q-8 -8 -17 1q-92 82 -211 82q-131 0 -221.5 -93t-90.5 -223t90.5 -222t221.5 -92q110 0 211 84q9 7 16 2l17 -17q9 -8 0 -17q-100 -97 -244 -97q-2 0 -7 0.5t-8 0.5v-45q48 -6 77.5 -30.5t29.5 -66.5
q0 -40 -28 -68.5t-70 -28.5q-27 0 -48.5 10.5t-29.5 23.5q-7 11 1 18l10 8q7 6 16 -3q18 -21 51 -21q26 0 42.5 17.5t16.5 42.5q0 57 -92 68q-12 3 -12 13v65q-133 17 -222 117.5t-89 237.5z" />
    <glyph glyph-name="Egrave" unicode="&#xc8;" horiz-adv-x="598" 
d="M106 13v674q0 13 13 13h401q13 0 13 -13v-17q0 -13 -13 -13h-366v-276h317q13 0 13 -13v-17q0 -13 -13 -13h-317v-296h366q13 0 13 -13v-16q0 -13 -13 -13h-401q-13 0 -13 13zM402 782l-172 79q-9 5 -4 15l10 20q5 9 17 3l164 -90q9 -5 6 -14l-5 -10q-4 -8 -16 -3z" />
    <glyph glyph-name="Eacute" unicode="&#xc9;" horiz-adv-x="598" 
d="M106 13v674q0 13 13 13h401q13 0 13 -13v-17q0 -13 -13 -13h-366v-276h317q13 0 13 -13v-17q0 -13 -13 -13h-317v-296h366q13 0 13 -13v-16q0 -13 -13 -13h-401q-13 0 -13 13zM246 782q-12 -5 -16 3l-5 10q-3 9 6 14l164 90q12 6 17 -3l10 -20q5 -10 -4 -15z" />
    <glyph glyph-name="Ecircumflex" unicode="&#xca;" horiz-adv-x="598" 
d="M106 13v674q0 13 13 13h401q13 0 13 -13v-17q0 -13 -13 -13h-366v-276h317q13 0 13 -13v-17q0 -13 -13 -13h-317v-296h366q13 0 13 -13v-16q0 -13 -13 -13h-401q-13 0 -13 13zM201 768q-9 -6 -15 2l-9 11q-5 7 4 14l121 98q5 5 10 5h3q5 0 10 -5l121 -98q9 -7 4 -14
l-9 -11q-6 -8 -15 -2l-113 84z" />
    <glyph glyph-name="Edieresis" unicode="&#xcb;" horiz-adv-x="598" 
d="M106 13v674q0 13 13 13h401q13 0 13 -13v-17q0 -13 -13 -13h-366v-276h317q13 0 13 -13v-17q0 -13 -13 -13h-317v-296h366q13 0 13 -13v-16q0 -13 -13 -13h-401q-13 0 -13 13zM423 801q-14 0 -24 9.5t-10 23.5q0 15 10 25t24 10q15 0 25 -10t10 -25q0 -14 -10 -23.5
t-25 -9.5zM214 801q-14 0 -24 9.5t-10 23.5q0 15 10 25t24 10q15 0 25 -10t10 -25q0 -14 -10 -23.5t-25 -9.5z" />
    <glyph glyph-name="Igrave" unicode="&#xcc;" horiz-adv-x="260" 
d="M106 13v674q0 13 13 13h22q13 0 13 -13v-674q0 -13 -14 -13h-21q-13 0 -13 13zM217 782l-172 79q-9 5 -4 15l10 20q5 9 17 3l164 -90q9 -5 6 -14l-5 -10q-4 -8 -16 -3z" />
    <glyph glyph-name="Iacute" unicode="&#xcd;" horiz-adv-x="260" 
d="M106 13v674q0 13 13 13h22q13 0 13 -13v-674q0 -13 -14 -13h-21q-13 0 -13 13zM61 782q-12 -5 -16 3l-5 10q-3 9 6 14l164 90q12 6 17 -3l10 -20q5 -10 -4 -15z" />
    <glyph glyph-name="Icircumflex" unicode="&#xce;" horiz-adv-x="260" 
d="M106 13v674q0 13 13 13h22q13 0 13 -13v-674q0 -13 -14 -13h-21q-13 0 -13 13zM16 768q-9 -6 -15 2l-9 11q-5 7 4 14l121 98q5 5 10 5h3q5 0 10 -5l121 -98q9 -7 4 -14l-9 -11q-6 -8 -15 -2l-113 84z" />
    <glyph glyph-name="Idieresis" unicode="&#xcf;" horiz-adv-x="260" 
d="M106 13v674q0 13 13 13h22q13 0 13 -13v-674q0 -13 -14 -13h-21q-13 0 -13 13zM234 801q-14 0 -24 9.5t-10 23.5q0 15 10 25t24 10q15 0 25 -10t10 -25q0 -14 -10 -23.5t-25 -9.5zM25 801q-14 0 -24 9.5t-10 23.5q0 15 10 25t24 10q15 0 25 -10t10 -25q0 -14 -10 -23.5
t-25 -9.5z" />
    <glyph glyph-name="Eth" unicode="&#xd0;" horiz-adv-x="741" 
d="M109 13v319h-35q-12 0 -12 13v5q0 13 12 13h35v324q0 13 12 13h212q145 0 248.5 -102.5t103.5 -246.5q0 -146 -103 -248.5t-249 -102.5h-212q-12 0 -12 13zM156 43h169q131 0 220 88.5t89 219.5q0 130 -89 218t-220 88h-169v-294h250q13 0 13 -13v-6q0 -12 -13 -12h-250
v-289z" />
    <glyph glyph-name="Ntilde" unicode="&#xd1;" horiz-adv-x="771" 
d="M106 13v684q0 13 15 13h17l480 -625h1v602q0 13 13 13h20q13 0 13 -13v-684q0 -13 -16 -13h-13q-7 0 -484 631h-1v-608q0 -13 -13 -13h-19q-13 0 -13 13zM260 799l-12 5q-10 3 -6 14q24 61 57 78q17 8 36 8q24 0 41 -14t24.5 -31.5t19.5 -31.5t28 -14q37 0 57 59
q4 13 15 7l11 -4q8 -4 6 -13q-2 -8 -6 -17.5t-14 -27.5t-29 -29.5t-43 -11.5t-40.5 14.5t-24.5 31.5t-20.5 31.5t-27.5 14.5q-37 0 -57 -62q-3 -12 -15 -7z" />
    <glyph glyph-name="Ograve" unicode="&#xd2;" horiz-adv-x="833" 
d="M56 349q0 150 105 255.5t255 105.5q151 0 256 -105.5t105 -255.5q0 -151 -105 -255t-256 -104q-150 0 -255 104.5t-105 254.5zM100 349q0 -131 92.5 -223t223.5 -92t224 92t93 223t-93 224t-224 93t-223.5 -93t-92.5 -224zM504 782l-172 79q-9 5 -4 15l10 20q5 9 17 3
l164 -90q9 -5 6 -14l-5 -10q-4 -8 -16 -3z" />
    <glyph glyph-name="Oacute" unicode="&#xd3;" horiz-adv-x="833" 
d="M56 349q0 150 105 255.5t255 105.5q151 0 256 -105.5t105 -255.5q0 -151 -105 -255t-256 -104q-150 0 -255 104.5t-105 254.5zM100 349q0 -131 92.5 -223t223.5 -92t224 92t93 223t-93 224t-224 93t-223.5 -93t-92.5 -224zM348 782q-12 -5 -16 3l-5 10q-3 9 6 14l164 90
q12 6 17 -3l10 -20q5 -10 -4 -15z" />
    <glyph glyph-name="Ocircumflex" unicode="&#xd4;" horiz-adv-x="833" 
d="M56 349q0 150 105 255.5t255 105.5q151 0 256 -105.5t105 -255.5q0 -151 -105 -255t-256 -104q-150 0 -255 104.5t-105 254.5zM100 349q0 -131 92.5 -223t223.5 -92t224 92t93 223t-93 224t-224 93t-223.5 -93t-92.5 -224zM303 768q-9 -6 -15 2l-9 11q-5 7 4 14l121 98
q5 5 10 5h3q5 0 10 -5l121 -98q9 -7 4 -14l-9 -11q-6 -8 -15 -2l-113 84z" />
    <glyph glyph-name="Otilde" unicode="&#xd5;" horiz-adv-x="833" 
d="M56 349q0 150 105 255.5t255 105.5q151 0 256 -105.5t105 -255.5q0 -151 -105 -255t-256 -104q-150 0 -255 104.5t-105 254.5zM100 349q0 -131 92.5 -223t223.5 -92t224 92t93 223t-93 224t-224 93t-223.5 -93t-92.5 -224zM285 799l-12 5q-10 3 -6 14q24 61 57 78
q17 8 36 8q24 0 41 -14t24.5 -31.5t19.5 -31.5t28 -14q37 0 57 59q4 13 15 7l11 -4q8 -4 6 -13q-2 -8 -6 -17.5t-14 -27.5t-29 -29.5t-43 -11.5t-40.5 14.5t-24.5 31.5t-20.5 31.5t-27.5 14.5q-37 0 -57 -62q-3 -12 -15 -7z" />
    <glyph glyph-name="Odieresis" unicode="&#xd6;" horiz-adv-x="833" 
d="M56 349q0 150 105 255.5t255 105.5q151 0 256 -105.5t105 -255.5q0 -151 -105 -255t-256 -104q-150 0 -255 104.5t-105 254.5zM100 349q0 -131 92.5 -223t223.5 -92t224 92t93 223t-93 224t-224 93t-223.5 -93t-92.5 -224zM521 801q-14 0 -24 9.5t-10 23.5q0 15 10 25
t24 10q15 0 25 -10t10 -25q0 -14 -10 -23.5t-25 -9.5zM312 801q-14 0 -24 9.5t-10 23.5q0 15 10 25t24 10q15 0 25 -10t10 -25q0 -14 -10 -23.5t-25 -9.5z" />
    <glyph glyph-name="multiply" unicode="&#xd7;" 
d="M103 197l-12 11q-9 9 0 18l121 121l-121 121q-8 10 0 19l11 11q10 10 19 0l121 -121l121 122q9 8 18 -1l12 -11q8 -10 0 -18l-121 -122l121 -121q10 -10 0 -18l-12 -11q-9 -11 -17 -1l-122 122l-122 -121q-3 -4 -8.5 -4t-8.5 4z" />
    <glyph glyph-name="Oslash" unicode="&#xd8;" horiz-adv-x="833" 
d="M84 28q-9 9 0 18l63 62q-90 103 -90 241q0 150 105 255.5t255 105.5q144 0 247 -98l66 64q8 9 17 0l4 -4q9 -9 0 -18l-65 -64q92 -105 92 -241q0 -150 -105.5 -254.5t-255.5 -104.5q-147 0 -248 96l-64 -62q-8 -9 -17 0zM179 140l454 441q-91 85 -216 85
q-131 0 -223.5 -93t-92.5 -224q0 -121 78 -209zM201 118q89 -84 216 -84q131 0 224 92t93 223q0 120 -80 210z" />
    <glyph glyph-name="Ugrave" unicode="&#xd9;" horiz-adv-x="720" 
d="M98 255v432q0 13 13 13h21q13 0 13 -13v-427q0 -99 58 -161.5t156 -62.5q99 0 157.5 62.5t58.5 160.5v428q0 13 14 13h20q13 0 13 -13v-432q0 -116 -72.5 -190.5t-190.5 -74.5q-117 0 -189 74.5t-72 190.5zM456 782l-172 79q-9 5 -4 15l10 20q5 9 17 3l164 -90
q9 -5 6 -14l-5 -10q-4 -8 -16 -3z" />
    <glyph glyph-name="Uacute" unicode="&#xda;" horiz-adv-x="720" 
d="M98 255v432q0 13 13 13h21q13 0 13 -13v-427q0 -99 58 -161.5t156 -62.5q99 0 157.5 62.5t58.5 160.5v428q0 13 14 13h20q13 0 13 -13v-432q0 -116 -72.5 -190.5t-190.5 -74.5q-117 0 -189 74.5t-72 190.5zM300 782q-12 -5 -16 3l-5 10q-3 9 6 14l164 90q12 6 17 -3
l10 -20q5 -10 -4 -15z" />
    <glyph glyph-name="Ucircumflex" unicode="&#xdb;" horiz-adv-x="720" 
d="M98 255v432q0 13 13 13h21q13 0 13 -13v-427q0 -99 58 -161.5t156 -62.5q99 0 157.5 62.5t58.5 160.5v428q0 13 14 13h20q13 0 13 -13v-432q0 -116 -72.5 -190.5t-190.5 -74.5q-117 0 -189 74.5t-72 190.5zM255 768q-9 -6 -15 2l-9 11q-5 7 4 14l121 98q5 5 10 5h3
q5 0 10 -5l121 -98q9 -7 4 -14l-9 -11q-6 -8 -15 -2l-113 84z" />
    <glyph glyph-name="Udieresis" unicode="&#xdc;" horiz-adv-x="720" 
d="M98 255v432q0 13 13 13h21q13 0 13 -13v-427q0 -99 58 -161.5t156 -62.5q99 0 157.5 62.5t58.5 160.5v428q0 13 14 13h20q13 0 13 -13v-432q0 -116 -72.5 -190.5t-190.5 -74.5q-117 0 -189 74.5t-72 190.5zM473 801q-14 0 -24 9.5t-10 23.5q0 15 10 25t24 10q15 0 25 -10
t10 -25q0 -14 -10 -23.5t-25 -9.5zM264 801q-14 0 -24 9.5t-10 23.5q0 15 10 25t24 10q15 0 25 -10t10 -25q0 -14 -10 -23.5t-25 -9.5z" />
    <glyph glyph-name="Yacute" unicode="&#xdd;" horiz-adv-x="560" 
d="M253 13v327l-255 345q-4 6 -2 10.5t10 4.5h30q8 0 13 -6l228 -311l232 311q5 6 13 6h30q8 0 10 -4.5t-2 -10.5l-260 -344v-328q0 -13 -13 -13h-6h-6.5h-6.5t-6 1t-4.5 2.5t-3.5 4t-1 5.5zM199 782q-12 -5 -16 3l-5 10q-3 9 6 14l164 90q12 6 17 -3l10 -20q5 -10 -4 -15z
" />
    <glyph glyph-name="Thorn" unicode="&#xde;" horiz-adv-x="596" 
d="M106 13v674q0 13 13 13h21q13 0 13 -13v-111h181q93 0 159.5 -65.5t66.5 -157.5q0 -94 -66 -160.5t-159 -66.5h-182v-113q0 -13 -16 -13h-18q-13 0 -13 13zM153 171h179q74 0 127.5 53.5t53.5 129.5q0 73 -53.5 124t-128.5 51h-178v-358z" />
    <glyph glyph-name="germandbls" unicode="&#xdf;" horiz-adv-x="554" 
d="M76 13v397q0 148 54.5 224t158.5 76q72 0 121.5 -38.5t49.5 -115.5q0 -40 -22 -82t-44 -73.5t-22 -48.5q0 -12 22.5 -33.5t49.5 -43.5t49.5 -59.5t22.5 -79.5q0 -72 -48.5 -109t-118.5 -37q-36 0 -62.5 6.5t-36.5 14t-8 13.5l6 19q4 13 15 8q40 -22 86 -22q52 0 87 28
t35 79q0 34 -23 67t-50.5 54.5t-50.5 47t-23 45.5q0 25 45.5 95t45.5 109q0 56 -37.5 86t-89.5 30q-168 0 -168 -260v-397q0 -13 -13 -13h-20q-11 0 -11 13z" />
    <glyph glyph-name="agrave" unicode="&#xe0;" horiz-adv-x="427" 
d="M44 123q0 59 45.5 97t122.5 38q52 0 101 -18q0 73 -16.5 102.5t-71.5 29.5q-19 0 -37 -2.5t-31.5 -6.5t-24 -7.5t-18.5 -7t-9 -3.5q-11 -4 -15 8l-5 12q-4 11 6 15q5 3 18 9t47.5 13.5t71.5 7.5q36 0 60 -9t37.5 -22.5t20 -39t8 -46.5t1.5 -58v-222q0 -13 -13 -13h-12
q-9 0 -12 11l-4 36q-62 -57 -139 -57q-57 0 -94 36.5t-37 96.5zM85 124q0 -43 26.5 -69t68.5 -26t79 20t54 42v110q-46 21 -101 21q-57 0 -92 -27t-35 -71zM312 559l-172 79q-9 5 -4 15l10 20q5 9 17 3l164 -90q9 -5 6 -14l-5 -10q-4 -8 -16 -3z" />
    <glyph glyph-name="aacute" unicode="&#xe1;" horiz-adv-x="427" 
d="M44 123q0 59 45.5 97t122.5 38q52 0 101 -18q0 73 -16.5 102.5t-71.5 29.5q-19 0 -37 -2.5t-31.5 -6.5t-24 -7.5t-18.5 -7t-9 -3.5q-11 -4 -15 8l-5 12q-4 11 6 15q5 3 18 9t47.5 13.5t71.5 7.5q36 0 60 -9t37.5 -22.5t20 -39t8 -46.5t1.5 -58v-222q0 -13 -13 -13h-12
q-9 0 -12 11l-4 36q-62 -57 -139 -57q-57 0 -94 36.5t-37 96.5zM85 124q0 -43 26.5 -69t68.5 -26t79 20t54 42v110q-46 21 -101 21q-57 0 -92 -27t-35 -71zM153 558q-10 -4 -14 4l-6 13q-4 8 6 14l165 87q11 7 17 -3l10 -20q5 -11 -9 -18z" />
    <glyph glyph-name="acircumflex" unicode="&#xe2;" horiz-adv-x="427" 
d="M44 123q0 59 45.5 97t122.5 38q52 0 101 -18q0 73 -16.5 102.5t-71.5 29.5q-19 0 -37 -2.5t-31.5 -6.5t-24 -7.5t-18.5 -7t-9 -3.5q-11 -4 -15 8l-5 12q-4 11 6 15q5 3 18 9t47.5 13.5t71.5 7.5q36 0 60 -9t37.5 -22.5t20 -39t8 -46.5t1.5 -58v-222q0 -13 -13 -13h-12
q-9 0 -12 11l-4 36q-62 -57 -139 -57q-57 0 -94 36.5t-37 96.5zM85 124q0 -43 26.5 -69t68.5 -26t79 20t54 42v110q-46 21 -101 21q-57 0 -92 -27t-35 -71zM101 550q-9 -6 -15 2l-9 11q-5 7 4 14l121 98q5 5 10 5h3q5 0 10 -5l121 -98q9 -7 4 -14l-9 -11q-6 -8 -15 -2
l-113 84z" />
    <glyph glyph-name="atilde" unicode="&#xe3;" horiz-adv-x="427" 
d="M44 123q0 59 45.5 97t122.5 38q52 0 101 -18q0 73 -16.5 102.5t-71.5 29.5q-19 0 -37 -2.5t-31.5 -6.5t-24 -7.5t-18.5 -7t-9 -3.5q-11 -4 -15 8l-5 12q-4 11 6 15q5 3 18 9t47.5 13.5t71.5 7.5q36 0 60 -9t37.5 -22.5t20 -39t8 -46.5t1.5 -58v-222q0 -13 -13 -13h-12
q-9 0 -12 11l-4 36q-62 -57 -139 -57q-57 0 -94 36.5t-37 96.5zM85 124q0 -43 26.5 -69t68.5 -26t79 20t54 42v110q-46 21 -101 21q-57 0 -92 -27t-35 -71zM78 579l-12 5q-10 3 -6 14q24 61 57 78q17 8 36 8q24 0 41 -14t24.5 -31.5t19.5 -31.5t28 -14q37 0 57 59q4 13 15 7
l11 -4q8 -4 6 -13q-2 -8 -6 -17.5t-14 -27.5t-29 -29.5t-43 -11.5t-40.5 14.5t-24.5 31.5t-20.5 31.5t-27.5 14.5q-37 0 -57 -62q-3 -12 -15 -7z" />
    <glyph glyph-name="adieresis" unicode="&#xe4;" horiz-adv-x="427" 
d="M44 123q0 59 45.5 97t122.5 38q52 0 101 -18q0 73 -16.5 102.5t-71.5 29.5q-19 0 -37 -2.5t-31.5 -6.5t-24 -7.5t-18.5 -7t-9 -3.5q-11 -4 -15 8l-5 12q-4 11 6 15q5 3 18 9t47.5 13.5t71.5 7.5q36 0 60 -9t37.5 -22.5t20 -39t8 -46.5t1.5 -58v-222q0 -13 -13 -13h-12
q-9 0 -12 11l-4 36q-62 -57 -139 -57q-57 0 -94 36.5t-37 96.5zM85 124q0 -43 26.5 -69t68.5 -26t79 20t54 42v110q-46 21 -101 21q-57 0 -92 -27t-35 -71zM322 596q-14 0 -23.5 9.5t-9.5 23.5q0 15 9.5 25t23.5 10q15 0 25 -10t10 -25q0 -14 -10 -23.5t-25 -9.5zM131 596
q-14 0 -24 9.5t-10 23.5q0 15 10 25t24 10q15 0 24.5 -10t9.5 -25q0 -14 -9.5 -23.5t-24.5 -9.5z" />
    <glyph glyph-name="aring" unicode="&#xe5;" horiz-adv-x="427" 
d="M44 123q0 59 45.5 97t122.5 38q52 0 101 -18q0 73 -16.5 102.5t-71.5 29.5q-19 0 -37 -2.5t-31.5 -6.5t-24 -7.5t-18.5 -7t-9 -3.5q-11 -4 -15 8l-5 12q-4 11 6 15q5 3 18 9t47.5 13.5t71.5 7.5q36 0 60 -9t37.5 -22.5t20 -39t8 -46.5t1.5 -58v-222q0 -13 -13 -13h-12
q-9 0 -12 11l-4 36q-62 -57 -139 -57q-57 0 -94 36.5t-37 96.5zM85 124q0 -43 26.5 -69t68.5 -26t79 20t54 42v110q-46 21 -101 21q-57 0 -92 -27t-35 -71zM215 497q-45 0 -76 30.5t-31 75.5t31 76t76 31q44 0 75 -31t31 -76t-31 -75.5t-75 -30.5zM215 529q29 0 51 22t22 52
t-22 52t-51 22q-30 0 -52.5 -22t-22.5 -52t22.5 -52t52.5 -22z" />
    <glyph glyph-name="ae" unicode="&#xe6;" horiz-adv-x="705" 
d="M45 125q0 59 44 95.5t118 36.5q70 0 106 -13q0 73 -15.5 100t-69.5 27q-19 0 -38 -2.5t-33.5 -6.5t-25 -7.5t-19 -7t-9.5 -3.5q-12 -3 -15 8l-4 16q-2 9 9 13q57 29 137 29q92 0 115 -59q54 59 137 59q79 0 130 -51.5t51 -131.5q0 -39 -15 -39h-296v-84q21 -34 56 -54
t77 -20q63 0 118 37q12 8 18 0l10 -14q5 -7 -4 -16q-17 -17 -59.5 -32t-85.5 -15q-91 0 -146 68q-23 -27 -66 -47.5t-90 -20.5q-59 0 -97 37t-38 98zM352 224h267q0 62 -36 104t-101 42q-87 0 -130 -70v-76zM85 124q0 -45 29 -70t72 -25q40 0 76 18t52 39v120
q-52 15 -102 15q-56 0 -91.5 -26.5t-35.5 -70.5z" />
    <glyph glyph-name="ccedilla" unicode="&#xe7;" horiz-adv-x="461" 
d="M47 200q0 89 62 149.5t148 60.5q52 0 91 -20t57 -43q8 -10 -2 -18l-10 -10q-9 -9 -21 2q-13 15 -43.5 30.5t-71.5 15.5q-69 0 -117 -47.5t-48 -118.5q0 -72 48 -120.5t116 -48.5q71 0 125 59q10 11 19 2l11 -10q8 -8 3 -16q-16 -25 -59 -51t-98 -26h-7v-44
q48 -6 77.5 -30.5t29.5 -66.5q0 -40 -28 -68.5t-70 -28.5q-27 0 -48.5 10.5t-29.5 23.5q-7 11 1 18l10 8q7 6 16 -3q18 -21 51 -21q26 0 42.5 17.5t16.5 42.5q0 57 -92 68q-12 3 -12 13v66q-72 15 -119.5 71t-47.5 134z" />
    <glyph glyph-name="egrave" unicode="&#xe8;" horiz-adv-x="467" 
d="M47 201q0 88 54 148.5t143 60.5q79 0 130 -51.5t51 -131.5q0 -39 -15 -39h-319q3 -66 46.5 -112t109.5 -46q63 0 118 37q12 8 18 0l10 -14q5 -7 -4 -16q-17 -17 -59.5 -32t-85.5 -15q-89 0 -143 60.5t-54 150.5zM92 224h289q0 62 -36 104t-101 42t-106.5 -41.5
t-45.5 -104.5zM321 559l-172 79q-9 5 -4 15l10 20q5 9 17 3l164 -90q9 -5 6 -14l-5 -10q-4 -8 -16 -3z" />
    <glyph glyph-name="eacute" unicode="&#xe9;" horiz-adv-x="467" 
d="M47 201q0 88 54 148.5t143 60.5q79 0 130 -51.5t51 -131.5q0 -39 -15 -39h-319q3 -66 46.5 -112t109.5 -46q63 0 118 37q12 8 18 0l10 -14q5 -7 -4 -16q-17 -17 -59.5 -32t-85.5 -15q-89 0 -143 60.5t-54 150.5zM92 224h289q0 62 -36 104t-101 42t-106.5 -41.5
t-45.5 -104.5zM165 558q-10 -4 -14 4l-6 13q-4 8 6 14l165 87q11 7 17 -3l10 -20q5 -11 -9 -18z" />
    <glyph glyph-name="ecircumflex" unicode="&#xea;" horiz-adv-x="467" 
d="M47 201q0 88 54 148.5t143 60.5q79 0 130 -51.5t51 -131.5q0 -39 -15 -39h-319q3 -66 46.5 -112t109.5 -46q63 0 118 37q12 8 18 0l10 -14q5 -7 -4 -16q-17 -17 -59.5 -32t-85.5 -15q-89 0 -143 60.5t-54 150.5zM92 224h289q0 62 -36 104t-101 42t-106.5 -41.5
t-45.5 -104.5zM130 550q-9 -6 -15 2l-9 11q-5 7 4 14l121 98q5 5 10 5h3q5 0 10 -5l121 -98q9 -7 4 -14l-9 -11q-6 -8 -15 -2l-113 84z" />
    <glyph glyph-name="edieresis" unicode="&#xeb;" horiz-adv-x="467" 
d="M47 201q0 88 54 148.5t143 60.5q79 0 130 -51.5t51 -131.5q0 -39 -15 -39h-319q3 -66 46.5 -112t109.5 -46q63 0 118 37q12 8 18 0l10 -14q5 -7 -4 -16q-17 -17 -59.5 -32t-85.5 -15q-89 0 -143 60.5t-54 150.5zM92 224h289q0 62 -36 104t-101 42t-106.5 -41.5
t-45.5 -104.5zM338 596q-14 0 -23.5 9.5t-9.5 23.5q0 15 9.5 25t23.5 10q15 0 25 -10t10 -25q0 -14 -10 -23.5t-25 -9.5zM147 596q-14 0 -24 9.5t-10 23.5q0 15 10 25t24 10q15 0 24.5 -10t9.5 -25q0 -14 -9.5 -23.5t-24.5 -9.5z" />
    <glyph glyph-name="igrave" unicode="&#xec;" horiz-adv-x="196" 
d="M176 559l-172 79q-9 5 -4 15l10 20q5 9 17 3l164 -90q9 -5 6 -14l-5 -10q-4 -8 -16 -3zM76 13v374q0 13 13 13h18q13 0 13 -13v-374q0 -13 -14 -13h-17q-13 0 -13 13z" />
    <glyph glyph-name="iacute" unicode="&#xed;" horiz-adv-x="196" 
d="M20 558q-10 -4 -14 4l-6 13q-4 8 6 14l165 87q11 7 17 -3l10 -20q5 -11 -9 -18zM76 13v374q0 13 13 13h18q13 0 13 -13v-374q0 -13 -14 -13h-17q-13 0 -13 13z" />
    <glyph glyph-name="icircumflex" unicode="&#xee;" horiz-adv-x="196" 
d="M76 13v374q0 13 13 13h18q13 0 13 -13v-374q0 -13 -14 -13h-17q-13 0 -13 13zM-15 550q-9 -6 -15 2l-9 11q-5 7 4 14l121 98q5 5 10 5h3q5 0 10 -5l121 -98q9 -7 4 -14l-9 -11q-6 -8 -15 -2l-113 84z" />
    <glyph glyph-name="idieresis" unicode="&#xef;" horiz-adv-x="196" 
d="M193 596q-14 0 -23.5 9.5t-9.5 23.5q0 15 9.5 25t23.5 10q15 0 25 -10t10 -25q0 -14 -10 -23.5t-25 -9.5zM2 596q-14 0 -24 9.5t-10 23.5q0 15 10 25t24 10q15 0 24.5 -10t9.5 -25q0 -14 -9.5 -23.5t-24.5 -9.5zM76 13v374q0 13 13 13h18q13 0 13 -13v-374q0 -13 -14 -13
h-17q-13 0 -13 13z" />
    <glyph glyph-name="eth" unicode="&#xf0;" horiz-adv-x="553" 
d="M44 220q0 97 64 158t153 61q66 0 116.5 -28t69.5 -53q-21 123 -142 222l-115 -67q-12 -6 -17 5l-3 5q-8 11 4 17l104 60q-65 44 -120 66q-12 4 -6 16l7 17q3 9 14 5q74 -27 145 -81l69 40q11 6 18 -5l3 -5q5 -10 -5 -17l-58 -34q156 -135 156 -327q0 -125 -61 -205
t-173 -80q-91 0 -157 67.5t-66 162.5zM88 218q0 -77 52.5 -131.5t126.5 -54.5q91 0 140.5 69t49.5 167q0 10 -2 30q-6 7 -10 12.5t-23.5 24t-39 30.5t-52 22.5t-66.5 10.5q-73 0 -124.5 -51t-51.5 -129z" />
    <glyph glyph-name="ntilde" unicode="&#xf1;" horiz-adv-x="495" 
d="M76 13v374q0 13 14 13h10q10 0 12 -10l4 -43q10 11 26 23t51 26t71 14q82 0 121.5 -48t39.5 -135v-214q0 -13 -13 -13h-18q-13 0 -13 13v214q0 69 -31 104.5t-88 35.5q-37 0 -72.5 -17.5t-49.5 -30.5t-21 -21v-285q0 -13 -13 -13h-19q-11 0 -11 13zM116 579l-12 5
q-10 3 -6 14q24 61 57 78q17 8 36 8q24 0 41 -14t24.5 -31.5t19.5 -31.5t28 -14q37 0 57 59q4 13 15 7l11 -4q8 -4 6 -13q-2 -8 -6 -17.5t-14 -27.5t-29 -29.5t-43 -11.5t-40.5 14.5t-24.5 31.5t-20.5 31.5t-27.5 14.5q-37 0 -57 -62q-3 -12 -15 -7z" />
    <glyph glyph-name="ograve" unicode="&#xf2;" horiz-adv-x="494" 
d="M46 201q0 86 58.5 147.5t142.5 61.5t142.5 -61.5t58.5 -147.5q0 -88 -58.5 -149.5t-142.5 -61.5t-142.5 61.5t-58.5 149.5zM89 201q0 -71 45.5 -120.5t112.5 -49.5q66 0 111.5 49.5t45.5 120.5q0 69 -45.5 118t-111.5 49t-112 -49t-46 -118zM324 559l-172 79q-9 5 -4 15
l10 20q5 9 17 3l164 -90q9 -5 6 -14l-5 -10q-4 -8 -16 -3z" />
    <glyph glyph-name="oacute" unicode="&#xf3;" horiz-adv-x="494" 
d="M46 201q0 86 58.5 147.5t142.5 61.5t142.5 -61.5t58.5 -147.5q0 -88 -58.5 -149.5t-142.5 -61.5t-142.5 61.5t-58.5 149.5zM89 201q0 -71 45.5 -120.5t112.5 -49.5q66 0 111.5 49.5t45.5 120.5q0 69 -45.5 118t-111.5 49t-112 -49t-46 -118zM168 558q-10 -4 -14 4l-6 13
q-4 8 6 14l165 87q11 7 17 -3l10 -20q5 -11 -9 -18z" />
    <glyph glyph-name="ocircumflex" unicode="&#xf4;" horiz-adv-x="494" 
d="M46 201q0 86 58.5 147.5t142.5 61.5t142.5 -61.5t58.5 -147.5q0 -88 -58.5 -149.5t-142.5 -61.5t-142.5 61.5t-58.5 149.5zM89 201q0 -71 45.5 -120.5t112.5 -49.5q66 0 111.5 49.5t45.5 120.5q0 69 -45.5 118t-111.5 49t-112 -49t-46 -118zM133 550q-9 -6 -15 2l-9 11
q-5 7 4 14l121 98q5 5 10 5h3q5 0 10 -5l121 -98q9 -7 4 -14l-9 -11q-6 -8 -15 -2l-113 84z" />
    <glyph glyph-name="otilde" unicode="&#xf5;" horiz-adv-x="494" 
d="M46 201q0 86 58.5 147.5t142.5 61.5t142.5 -61.5t58.5 -147.5q0 -88 -58.5 -149.5t-142.5 -61.5t-142.5 61.5t-58.5 149.5zM89 201q0 -71 45.5 -120.5t112.5 -49.5q66 0 111.5 49.5t45.5 120.5q0 69 -45.5 118t-111.5 49t-112 -49t-46 -118zM117 579l-12 5q-10 3 -6 14
q24 61 57 78q17 8 36 8q24 0 41 -14t24.5 -31.5t19.5 -31.5t28 -14q37 0 57 59q4 13 15 7l11 -4q8 -4 6 -13q-2 -8 -6 -17.5t-14 -27.5t-29 -29.5t-43 -11.5t-40.5 14.5t-24.5 31.5t-20.5 31.5t-27.5 14.5q-37 0 -57 -62q-3 -12 -15 -7z" />
    <glyph glyph-name="odieresis" unicode="&#xf6;" horiz-adv-x="494" 
d="M46 201q0 86 58.5 147.5t142.5 61.5t142.5 -61.5t58.5 -147.5q0 -88 -58.5 -149.5t-142.5 -61.5t-142.5 61.5t-58.5 149.5zM89 201q0 -71 45.5 -120.5t112.5 -49.5q66 0 111.5 49.5t45.5 120.5q0 69 -45.5 118t-111.5 49t-112 -49t-46 -118zM341 596q-14 0 -23.5 9.5
t-9.5 23.5q0 15 9.5 25t23.5 10q15 0 25 -10t10 -25q0 -14 -10 -23.5t-25 -9.5zM150 596q-14 0 -24 9.5t-10 23.5q0 15 10 25t24 10q15 0 24.5 -10t9.5 -25q0 -14 -9.5 -23.5t-24.5 -9.5z" />
    <glyph glyph-name="divide" unicode="&#xf7;" horiz-adv-x="585" 
d="M289 463q-17 0 -29 12.5t-12 28.5t12 28t29 12t28.5 -11.5t11.5 -28.5t-11.5 -29t-28.5 -12zM100 327q-13 0 -13 13v15q0 13 13 13h385q12 0 12 -13v-15q0 -13 -12 -13h-385zM248 190q0 16 12 28t29 12t28.5 -11.5t11.5 -28.5t-11.5 -29t-28.5 -12t-29 12.5t-12 28.5z
" />
    <glyph glyph-name="oslash" unicode="&#xf8;" horiz-adv-x="493" 
d="M69 36q-10 9 -1 18l18 18q-40 58 -40 128q0 86 58.5 148t142.5 62q80 0 138 -58l23 22q9 9 18 0l4 -4q11 -9 0 -18l-24 -24q41 -57 41 -128q0 -88 -58 -149t-142 -61q-82 0 -140 58l-17 -17q-8 -9 -18 1zM118 102l236 220q-44 46 -107 46q-66 0 -111.5 -49t-45.5 -119
q0 -55 28 -98zM138 78q45 -47 109 -47q66 0 111.5 49t45.5 120q0 54 -30 98z" />
    <glyph glyph-name="ugrave" unicode="&#xf9;" 
d="M71 172v215q0 13 13 13h18q13 0 13 -13v-215q0 -69 30.5 -104.5t88.5 -35.5q37 0 70 18t45 31t17 21v285q0 13 13 13h18q13 0 13 -13v-374q0 -13 -13 -13h-12q-10 0 -12 12l-4 39q-8 -11 -22.5 -23t-47 -25t-68.5 -13q-160 0 -160 182zM326 559l-172 79q-9 5 -4 15l10 20
q5 9 17 3l164 -90q9 -5 6 -14l-5 -10q-4 -8 -16 -3z" />
    <glyph glyph-name="uacute" unicode="&#xfa;" 
d="M71 172v215q0 13 13 13h18q13 0 13 -13v-215q0 -69 30.5 -104.5t88.5 -35.5q37 0 70 18t45 31t17 21v285q0 13 13 13h18q13 0 13 -13v-374q0 -13 -13 -13h-12q-10 0 -12 12l-4 39q-8 -11 -22.5 -23t-47 -25t-68.5 -13q-160 0 -160 182zM170 558q-10 -4 -14 4l-6 13
q-4 8 6 14l165 87q11 7 17 -3l10 -20q5 -11 -9 -18z" />
    <glyph glyph-name="ucircumflex" unicode="&#xfb;" 
d="M71 172v215q0 13 13 13h18q13 0 13 -13v-215q0 -69 30.5 -104.5t88.5 -35.5q37 0 70 18t45 31t17 21v285q0 13 13 13h18q13 0 13 -13v-374q0 -13 -13 -13h-12q-10 0 -12 12l-4 39q-8 -11 -22.5 -23t-47 -25t-68.5 -13q-160 0 -160 182zM130 550q-9 -6 -15 2l-9 11
q-5 7 4 14l121 98q5 5 10 5h3q5 0 10 -5l121 -98q9 -7 4 -14l-9 -11q-6 -8 -15 -2l-113 84z" />
    <glyph glyph-name="udieresis" unicode="&#xfc;" 
d="M71 172v215q0 13 13 13h18q13 0 13 -13v-215q0 -69 30.5 -104.5t88.5 -35.5q37 0 70 18t45 31t17 21v285q0 13 13 13h18q13 0 13 -13v-374q0 -13 -13 -13h-12q-10 0 -12 12l-4 39q-8 -11 -22.5 -23t-47 -25t-68.5 -13q-160 0 -160 182zM342 596q-14 0 -23.5 9.5
t-9.5 23.5q0 15 9.5 25t23.5 10q15 0 25 -10t10 -25q0 -14 -10 -23.5t-25 -9.5zM151 596q-14 0 -24 9.5t-10 23.5q0 15 10 25t24 10q15 0 24.5 -10t9.5 -25q0 -14 -9.5 -23.5t-24.5 -9.5z" />
    <glyph glyph-name="yacute" unicode="&#xfd;" horiz-adv-x="443" 
d="M204 4l-189 380q-8 16 6 16h22q9 0 13 -9l171 -338h2l156 338q5 9 13 9h22q14 0 6 -16l-314 -676q-3 -8 -13 -8h-23q-13 0 -7 14zM149 558q-10 -4 -14 4l-6 13q-4 8 6 14l165 87q11 7 17 -3l10 -20q5 -11 -9 -18z" />
    <glyph glyph-name="thorn" unicode="&#xfe;" 
d="M119 32v-319q0 -13 -13 -13h-17q-13 0 -13 13v974q0 13 14 13h16q13 0 13 -13v-324q56 47 128 47q82 0 137 -61.5t55 -149.5q0 -90 -56.5 -149.5t-144.5 -59.5q-73 0 -119 42zM120 80q2 -4 14.5 -14.5t40.5 -22t58 -11.5q72 0 117.5 47.5t45.5 119.5q0 71 -42.5 120.5
t-109.5 49.5q-35 0 -65.5 -14t-42.5 -25.5t-16 -17.5v-232z" />
    <glyph glyph-name="ydieresis" unicode="&#xff;" horiz-adv-x="443" 
d="M204 4l-189 380q-8 16 6 16h22q9 0 13 -9l171 -338h2l156 338q5 9 13 9h22q14 0 6 -16l-314 -676q-3 -8 -13 -8h-23q-13 0 -7 14zM323 596q-14 0 -23.5 9.5t-9.5 23.5q0 15 9.5 25t23.5 10q15 0 25 -10t10 -25q0 -14 -10 -23.5t-25 -9.5zM132 596q-14 0 -24 9.5t-10 23.5
q0 15 10 25t24 10q15 0 24.5 -10t9.5 -25q0 -14 -9.5 -23.5t-24.5 -9.5z" />
    <glyph glyph-name="Amacron" unicode="&#x100;" horiz-adv-x="653" 
d="M13 0q-11 0 -7 12l308 696q4 7 12 7h3q9 0 13 -7l305 -696q4 -12 -9 -12h-26q-10 0 -14 9l-81 184h-382l-80 -184q-5 -9 -14 -9h-28zM153 232h347l-171 403h-2zM195 831q-13 0 -13 13v12q0 13 13 13h272q13 0 13 -13v-12q0 -13 -13 -13h-272z" />
    <glyph glyph-name="amacron" unicode="&#x101;" horiz-adv-x="427" 
d="M44 123q0 59 45.5 97t122.5 38q52 0 101 -18q0 73 -16.5 102.5t-71.5 29.5q-19 0 -37 -2.5t-31.5 -6.5t-24 -7.5t-18.5 -7t-9 -3.5q-11 -4 -15 8l-5 12q-4 11 6 15q5 3 18 9t47.5 13.5t71.5 7.5q36 0 60 -9t37.5 -22.5t20 -39t8 -46.5t1.5 -58v-222q0 -13 -13 -13h-12
q-9 0 -12 11l-4 36q-62 -57 -139 -57q-57 0 -94 36.5t-37 96.5zM85 124q0 -43 26.5 -69t68.5 -26t79 20t54 42v110q-46 21 -101 21q-57 0 -92 -27t-35 -71zM76 595q-13 0 -13 12v13q0 13 13 13h272q13 0 13 -13v-13q0 -12 -13 -12h-272z" />
    <glyph glyph-name="Abreve" unicode="&#x102;" horiz-adv-x="653" 
d="M13 0q-11 0 -7 12l308 696q4 7 12 7h3q9 0 13 -7l305 -696q4 -12 -9 -12h-26q-10 0 -14 9l-81 184h-382l-80 -184q-5 -9 -14 -9h-28zM153 232h347l-171 403h-2zM331 775q-51 0 -87.5 32t-43.5 79q-2 14 10 14h13q8 0 12 -12q9 -34 34.5 -56t61.5 -22q34 0 60.5 22.5
t34.5 55.5q3 12 12 12h14q12 0 10 -14q-8 -48 -44.5 -79.5t-86.5 -31.5z" />
    <glyph glyph-name="abreve" unicode="&#x103;" horiz-adv-x="427" 
d="M44 123q0 59 45.5 97t122.5 38q52 0 101 -18q0 73 -16.5 102.5t-71.5 29.5q-19 0 -37 -2.5t-31.5 -6.5t-24 -7.5t-18.5 -7t-9 -3.5q-11 -4 -15 8l-5 12q-4 11 6 15q5 3 18 9t47.5 13.5t71.5 7.5q36 0 60 -9t37.5 -22.5t20 -39t8 -46.5t1.5 -58v-222q0 -13 -13 -13h-12
q-9 0 -12 11l-4 36q-62 -57 -139 -57q-57 0 -94 36.5t-37 96.5zM85 124q0 -43 26.5 -69t68.5 -26t79 20t54 42v110q-46 21 -101 21q-57 0 -92 -27t-35 -71zM215 538q-50 0 -86.5 31.5t-44.5 78.5q-2 14 10 14h13q8 0 12 -11q8 -35 34 -57t62 -22q34 0 60.5 22.5t34.5 56.5
q3 11 12 11h14q12 0 10 -14q-8 -47 -44.5 -78.5t-86.5 -31.5z" />
    <glyph glyph-name="Aogonek" unicode="&#x104;" horiz-adv-x="653" 
d="M13 0q-11 0 -7 12l308 696q4 7 12 7h3q9 0 13 -7l305 -696q4 -12 -9 -12h-14q-66 -47 -66 -113q0 -32 21.5 -49.5t52.5 -17.5q29 0 62 15q11 6 13 -8l1 -10q1 -10 -8 -16q-29 -17 -73 -17q-46 0 -77 24.5t-31 73.5q0 32 17 61.5t32.5 42.5t30.5 22l-82 185h-382l-80 -184
q-5 -9 -14 -9h-28zM153 232h347l-171 403h-2z" />
    <glyph glyph-name="aogonek" unicode="&#x105;" horiz-adv-x="427" 
d="M44 123q0 59 45.5 97t122.5 38q52 0 101 -18q0 73 -16.5 102.5t-71.5 29.5q-19 0 -37 -2.5t-31.5 -6.5t-24 -7.5t-18.5 -7t-9 -3.5q-11 -4 -15 8l-5 12q-4 11 6 15q5 3 18 9t47.5 13.5t71.5 7.5q36 0 60 -9t37.5 -22.5t20 -39t8 -46.5t1.5 -58v-222q0 -13 -13 -13h-3
q-66 -47 -66 -113q0 -32 21.5 -49.5t52.5 -17.5q29 0 62 15q11 6 13 -8l1 -10q1 -10 -8 -16q-29 -17 -73 -17q-46 0 -77 24.5t-31 73.5q0 34 19 64.5t35.5 43.5t29.5 20l-4 37q-62 -57 -139 -57q-57 0 -94 36.5t-37 96.5zM85 124q0 -43 26.5 -69t68.5 -26t79 20t54 42v110
q-46 21 -101 21q-57 0 -92 -27t-35 -71z" />
    <glyph glyph-name="Cacute" unicode="&#x106;" horiz-adv-x="718" 
d="M56 349q0 150 106 255.5t256 105.5q141 0 243 -93q9 -9 1 -18l-16 -17q-8 -8 -17 1q-92 82 -211 82q-131 0 -221.5 -93t-90.5 -223t90.5 -222t221.5 -92q110 0 211 84q9 7 16 2l17 -17q9 -8 0 -17q-100 -97 -244 -97q-150 0 -256 104.5t-106 254.5zM350 782q-12 -5 -16 3
l-5 10q-3 9 6 14l164 90q12 6 17 -3l10 -20q5 -10 -4 -15z" />
    <glyph glyph-name="cacute" unicode="&#x107;" horiz-adv-x="459" 
d="M46 200q0 89 62 149.5t148 60.5q52 0 91 -20t57 -43q8 -10 -2 -18l-10 -10q-10 -9 -21 2q-13 15 -43.5 30.5t-71.5 15.5q-69 0 -117 -47.5t-48 -118.5q0 -72 48 -120.5t116 -48.5q71 0 125 59q10 11 19 2l11 -10q8 -8 3 -16q-16 -25 -59 -51t-98 -26q-86 0 -148 60.5
t-62 149.5zM175 558q-10 -4 -14 4l-6 13q-4 8 6 14l165 87q11 7 17 -3l10 -20q5 -11 -9 -18z" />
    <glyph glyph-name="Ccircumflex" unicode="&#x108;" horiz-adv-x="718" 
d="M56 349q0 150 106 255.5t256 105.5q141 0 243 -93q9 -9 1 -18l-16 -17q-8 -8 -17 1q-92 82 -211 82q-131 0 -221.5 -93t-90.5 -223t90.5 -222t221.5 -92q110 0 211 84q9 7 16 2l17 -17q9 -8 0 -17q-100 -97 -244 -97q-150 0 -256 104.5t-106 254.5zM305 768q-9 -6 -15 2
l-9 11q-5 7 4 14l121 98q5 5 10 5h3q5 0 10 -5l121 -98q9 -7 4 -14l-9 -11q-6 -8 -15 -2l-113 84z" />
    <glyph glyph-name="ccircumflex" unicode="&#x109;" horiz-adv-x="459" 
d="M46 200q0 89 62 149.5t148 60.5q52 0 91 -20t57 -43q8 -10 -2 -18l-10 -10q-10 -9 -21 2q-13 15 -43.5 30.5t-71.5 15.5q-69 0 -117 -47.5t-48 -118.5q0 -72 48 -120.5t116 -48.5q71 0 125 59q10 11 19 2l11 -10q8 -8 3 -16q-16 -25 -59 -51t-98 -26q-86 0 -148 60.5
t-62 149.5zM138 550q-9 -6 -15 2l-9 11q-5 7 4 14l121 98q5 5 10 5h3q5 0 10 -5l121 -98q9 -7 4 -14l-9 -11q-6 -8 -15 -2l-113 84z" />
    <glyph glyph-name="Cdotaccent" unicode="&#x10a;" horiz-adv-x="718" 
d="M56 349q0 150 106 255.5t256 105.5q141 0 243 -93q9 -9 1 -18l-16 -17q-8 -8 -17 1q-92 82 -211 82q-131 0 -221.5 -93t-90.5 -223t90.5 -222t221.5 -92q110 0 211 84q9 7 16 2l17 -17q9 -8 0 -17q-100 -97 -244 -97q-150 0 -256 104.5t-106 254.5zM418 810q-16 0 -27 11
t-11 27t11 27t27 11t27 -11t11 -27t-11 -27t-27 -11z" />
    <glyph glyph-name="cdotaccent" unicode="&#x10b;" horiz-adv-x="459" 
d="M46 200q0 89 62 149.5t148 60.5q52 0 91 -20t57 -43q8 -10 -2 -18l-10 -10q-10 -9 -21 2q-13 15 -43.5 30.5t-71.5 15.5q-69 0 -117 -47.5t-48 -118.5q0 -72 48 -120.5t116 -48.5q71 0 125 59q10 11 19 2l11 -10q8 -8 3 -16q-16 -25 -59 -51t-98 -26q-86 0 -148 60.5
t-62 149.5zM253 582q-16 0 -27 11.5t-11 26.5q0 16 11 27t27 11t27 -11t11 -27q0 -15 -11 -26.5t-27 -11.5z" />
    <glyph glyph-name="Ccaron" unicode="&#x10c;" horiz-adv-x="718" 
d="M56 349q0 150 106 255.5t256 105.5q141 0 243 -93q9 -9 1 -18l-16 -17q-8 -8 -17 1q-92 82 -211 82q-131 0 -221.5 -93t-90.5 -223t90.5 -222t221.5 -92q110 0 211 84q9 7 16 2l17 -17q9 -8 0 -17q-100 -97 -244 -97q-150 0 -256 104.5t-106 254.5zM417 763q-5 0 -10 5
l-121 98q-9 7 -4 14l9 11q6 8 15 2l113 -84l112 84q9 6 15 -2l9 -11q5 -7 -4 -14l-121 -98q-5 -5 -10 -5h-3z" />
    <glyph glyph-name="ccaron" unicode="&#x10d;" horiz-adv-x="459" 
d="M46 200q0 89 62 149.5t148 60.5q52 0 91 -20t57 -43q8 -10 -2 -18l-10 -10q-10 -9 -21 2q-13 15 -43.5 30.5t-71.5 15.5q-69 0 -117 -47.5t-48 -118.5q0 -72 48 -120.5t116 -48.5q71 0 125 59q10 11 19 2l11 -10q8 -8 3 -16q-16 -25 -59 -51t-98 -26q-86 0 -148 60.5
t-62 149.5zM250 545q-5 0 -10 5l-121 98q-9 7 -4 14l9 11q6 8 15 2l113 -84l112 84q9 6 15 -2l9 -11q5 -7 -4 -14l-121 -98q-5 -5 -10 -5h-3z" />
    <glyph glyph-name="Dcaron" unicode="&#x10e;" horiz-adv-x="738" 
d="M106 13v674q0 5 3.5 9t8.5 4h212q145 0 248.5 -102.5t103.5 -246.5q0 -146 -103 -248.5t-249 -102.5h-212q-5 0 -8.5 4t-3.5 9zM153 43h169q131 0 220.5 88.5t89.5 219.5q0 130 -89.5 218t-220.5 88h-169v-614zM322 763q-5 0 -10 5l-121 98q-9 7 -4 14l9 11q6 8 15 2
l113 -84l112 84q9 6 15 -2l9 -11q5 -7 -4 -14l-121 -98q-5 -5 -10 -5h-3z" />
    <glyph glyph-name="dcaron" unicode="&#x10f;" horiz-adv-x="516" 
d="M47 200q0 89 56 149.5t141 60.5q34 0 64.5 -10t44.5 -20l14 -10v317q0 13 13 13h18q5 0 8.5 -4t3.5 -9v-674q0 -13 -13 -13h-10q-13 0 -14 13l-3 35q-54 -58 -138 -58q-78 0 -131.5 61t-53.5 149zM91 200q0 -71 41 -120.5t103 -49.5q39 0 72 18t44.5 32t15.5 21v224
q-5 5 -14.5 12t-41 18.5t-63.5 11.5q-69 0 -113 -47.5t-44 -119.5zM524 477l-8 10q-7 8 4 16q51 41 56 95q1 22 -5 38q-8 -5 -16 -5q-19 0 -29.5 11.5t-10.5 28.5q0 18 11.5 28.5t30.5 10.5q24 0 40 -23.5t16 -70.5q0 -52 -24.5 -89t-47.5 -50q-12 -7 -17 0z" />
    <glyph glyph-name="Dcroat" unicode="&#x110;" horiz-adv-x="741" 
d="M109 13v319h-35q-12 0 -12 13v5q0 13 12 13h35v324q0 13 12 13h212q145 0 248.5 -102.5t103.5 -246.5q0 -146 -103 -248.5t-249 -102.5h-212q-12 0 -12 13zM156 43h169q131 0 220 88.5t89 219.5q0 130 -89 218t-220 88h-169v-294h250q13 0 13 -13v-6q0 -12 -13 -12h-250
v-289z" />
    <glyph glyph-name="dcroat" unicode="&#x111;" 
d="M47 200q0 89 56 149.5t141 60.5q34 0 64.5 -10t44.5 -20l14 -10v172h-191q-13 0 -13 13v5q0 13 13 13h191v114q0 13 14 13h17q5 0 8.5 -4t3.5 -9v-114h39q12 0 12 -15v-3q0 -13 -12 -13h-39v-529q0 -13 -13 -13h-10q-13 0 -14 13l-3 36q-9 -10 -24 -22t-47 -24.5
t-67 -12.5q-78 0 -131.5 61t-53.5 149zM91 200q0 -71 41 -120.5t103 -49.5q39 0 72 18t44.5 32t15.5 21v224q-5 5 -14.5 12t-41 18.5t-63.5 11.5q-69 0 -113 -47.5t-44 -119.5z" />
    <glyph glyph-name="Emacron" unicode="&#x112;" horiz-adv-x="598" 
d="M106 13v674q0 13 13 13h401q13 0 13 -13v-17q0 -13 -13 -13h-366v-276h317q13 0 13 -13v-17q0 -13 -13 -13h-317v-296h366q13 0 13 -13v-16q0 -13 -13 -13h-401q-13 0 -13 13zM190 831q-13 0 -13 13v12q0 13 13 13h272q13 0 13 -13v-12q0 -13 -13 -13h-272z" />
    <glyph glyph-name="emacron" unicode="&#x113;" horiz-adv-x="467" 
d="M47 201q0 88 54 148.5t143 60.5q79 0 130 -51.5t51 -131.5q0 -39 -15 -39h-319q3 -66 46.5 -112t109.5 -46q63 0 118 37q12 8 18 0l10 -14q5 -7 -4 -16q-17 -17 -59.5 -32t-85.5 -15q-89 0 -143 60.5t-54 150.5zM92 224h289q0 62 -36 104t-101 42t-106.5 -41.5
t-45.5 -104.5zM108 595q-13 0 -13 12v13q0 13 13 13h272q13 0 13 -13v-13q0 -12 -13 -12h-272z" />
    <glyph glyph-name="Ebreve" unicode="&#x114;" horiz-adv-x="598" 
d="M106 13v674q0 13 13 13h401q13 0 13 -13v-17q0 -13 -13 -13h-366v-276h317q13 0 13 -13v-17q0 -13 -13 -13h-317v-296h366q13 0 13 -13v-16q0 -13 -13 -13h-401q-13 0 -13 13zM315 775q-51 0 -87.5 32t-43.5 79q-2 14 10 14h13q8 0 12 -12q9 -34 34.5 -56t61.5 -22
q34 0 60.5 22.5t34.5 55.5q3 12 12 12h14q12 0 10 -14q-8 -48 -44.5 -79.5t-86.5 -31.5z" />
    <glyph glyph-name="ebreve" unicode="&#x115;" horiz-adv-x="467" 
d="M47 201q0 88 54 148.5t143 60.5q79 0 130 -51.5t51 -131.5q0 -39 -15 -39h-319q3 -66 46.5 -112t109.5 -46q63 0 118 37q12 8 18 0l10 -14q5 -7 -4 -16q-17 -17 -59.5 -32t-85.5 -15q-89 0 -143 60.5t-54 150.5zM92 224h289q0 62 -36 104t-101 42t-106.5 -41.5
t-45.5 -104.5zM244 538q-50 0 -86.5 31.5t-44.5 78.5q-2 14 10 14h13q8 0 12 -11q8 -35 34 -57t62 -22q34 0 60.5 22.5t34.5 56.5q3 11 12 11h14q12 0 10 -14q-8 -47 -44.5 -78.5t-86.5 -31.5z" />
    <glyph glyph-name="Edotaccent" unicode="&#x116;" horiz-adv-x="598" 
d="M106 13v674q0 13 13 13h401q13 0 13 -13v-17q0 -13 -13 -13h-366v-276h317q13 0 13 -13v-17q0 -13 -13 -13h-317v-296h366q13 0 13 -13v-16q0 -13 -13 -13h-401q-13 0 -13 13zM316 810q-16 0 -27 11t-11 27t11 27t27 11t27 -11t11 -27t-11 -27t-27 -11z" />
    <glyph glyph-name="edotaccent" unicode="&#x117;" horiz-adv-x="467" 
d="M47 201q0 88 54 148.5t143 60.5q79 0 130 -51.5t51 -131.5q0 -39 -15 -39h-319q3 -66 46.5 -112t109.5 -46q63 0 118 37q12 8 18 0l10 -14q5 -7 -4 -16q-17 -17 -59.5 -32t-85.5 -15q-89 0 -143 60.5t-54 150.5zM92 224h289q0 62 -36 104t-101 42t-106.5 -41.5
t-45.5 -104.5zM246 582q-16 0 -27 11.5t-11 26.5q0 16 11 27t27 11t27 -11t11 -27q0 -15 -11 -26.5t-27 -11.5z" />
    <glyph glyph-name="Eogonek" unicode="&#x118;" horiz-adv-x="598" 
d="M106 13v674q0 13 13 13h401q13 0 13 -13v-17q0 -13 -13 -13h-366v-276h317q13 0 13 -13v-17q0 -13 -13 -13h-317v-296h366q13 0 13 -13v-11q0 -9 -14 -18q-66 -47 -66 -113q0 -32 21.5 -49.5t52.5 -17.5q29 0 62 15q11 6 13 -8l1 -10q1 -10 -8 -16q-29 -17 -73 -17
q-46 0 -77 24.5t-31 73.5q0 72 67 118h-362q-13 0 -13 13z" />
    <glyph glyph-name="eogonek" unicode="&#x119;" horiz-adv-x="469" 
d="M168 -118q0 63 55 109q-80 7 -127.5 66.5t-47.5 143.5q0 88 54 148.5t143 60.5q79 0 130 -51.5t51 -131.5q0 -39 -15 -39h-319q3 -66 46.5 -112t109.5 -46q62 0 118 37q12 8 18 0l10 -14q5 -7 -4 -16q-15 -15 -52.5 -29t-77.5 -17q-53 -46 -53 -104q0 -32 21.5 -49.5
t52.5 -17.5q29 0 62 15q11 6 13 -8l1 -10q1 -10 -8 -16q-29 -17 -73 -17q-46 0 -77 24.5t-31 73.5zM93 224h289q0 62 -36 104t-101 42t-106.5 -41.5t-45.5 -104.5z" />
    <glyph glyph-name="Ecaron" unicode="&#x11a;" horiz-adv-x="598" 
d="M106 13v674q0 13 13 13h401q13 0 13 -13v-17q0 -13 -13 -13h-366v-276h317q13 0 13 -13v-17q0 -13 -13 -13h-317v-296h366q13 0 13 -13v-16q0 -13 -13 -13h-401q-13 0 -13 13zM313 763q-5 0 -10 5l-121 98q-9 7 -4 14l9 11q6 8 15 2l113 -84l112 84q9 6 15 -2l9 -11
q5 -7 -4 -14l-121 -98q-5 -5 -10 -5h-3z" />
    <glyph glyph-name="ecaron" unicode="&#x11b;" horiz-adv-x="467" 
d="M47 201q0 88 54 148.5t143 60.5q79 0 130 -51.5t51 -131.5q0 -39 -15 -39h-319q3 -66 46.5 -112t109.5 -46q63 0 118 37q12 8 18 0l10 -14q5 -7 -4 -16q-17 -17 -59.5 -32t-85.5 -15q-89 0 -143 60.5t-54 150.5zM92 224h289q0 62 -36 104t-101 42t-106.5 -41.5
t-45.5 -104.5zM244 545q-5 0 -10 5l-121 98q-9 7 -4 14l9 11q6 8 15 2l113 -84l112 84q9 6 15 -2l9 -11q5 -7 -4 -14l-121 -98q-5 -5 -10 -5h-3z" />
    <glyph glyph-name="Gcircumflex" unicode="&#x11c;" horiz-adv-x="743" 
d="M56 349q0 150 105.5 255.5t256.5 105.5q140 0 242 -93q10 -9 1 -18q-5 -6 -16 -17q-8 -9 -17 0q-90 84 -211 84q-130 0 -220.5 -92.5t-90.5 -222.5t90.5 -222.5t220.5 -92.5q55 0 105.5 13t72 24t30.5 18v188h-171q-13 0 -13 13v20q0 12 13 12h205q5 0 9 -3.5t4 -8.5
v-232q0 -16 -14 -26q-16 -10 -41 -22.5t-82.5 -27t-116.5 -14.5q-151 0 -256.5 104.5t-105.5 254.5zM304 768q-9 -6 -15 2l-9 11q-5 7 4 14l121 98q5 5 10 5h3q5 0 10 -5l121 -98q9 -7 4 -14l-9 -11q-6 -8 -15 -2l-113 84z" />
    <glyph glyph-name="gcircumflex" unicode="&#x11d;" horiz-adv-x="462" 
d="M35 34q0 30 15.5 56t27.5 35.5t23 15.5q-31 39 -31 100q0 73 48 121t127 48h164q13 0 13 -13v-11q0 -10 -9 -12l-72 -5q13 -7 25 -19t24.5 -41.5t12.5 -67.5q0 -69 -46 -117.5t-120 -48.5q-76 0 -109 36q-7 -3 -17 -9.5t-22 -24t-12 -38.5q0 -58 79 -58h145q68 0 108 -32
t40 -96q0 -66 -57.5 -114.5t-146.5 -48.5q-94 0 -144.5 45t-50.5 103q0 66 63 105q-24 5 -51 28.5t-27 62.5zM238 114q55 0 89 36.5t34 91.5q0 60 -35.5 94t-87.5 34q-57 0 -92 -36.5t-35 -91.5t33.5 -91.5t93.5 -36.5zM94 -157q0 -44 40.5 -78t109.5 -34q67 0 113 35t46 86
q0 38 -25 63t-77 25h-126q-8 -1 -25.5 -10t-36.5 -32.5t-19 -54.5zM134 550q-9 -6 -15 2l-9 11q-5 7 4 14l121 98q5 5 10 5h3q5 0 10 -5l121 -98q9 -7 4 -14l-9 -11q-6 -8 -15 -2l-113 84z" />
    <glyph glyph-name="Gbreve" unicode="&#x11e;" horiz-adv-x="743" 
d="M56 349q0 150 105.5 255.5t256.5 105.5q140 0 242 -93q10 -9 1 -18q-5 -6 -16 -17q-8 -9 -17 0q-90 84 -211 84q-130 0 -220.5 -92.5t-90.5 -222.5t90.5 -222.5t220.5 -92.5q55 0 105.5 13t72 24t30.5 18v188h-171q-13 0 -13 13v20q0 12 13 12h205q5 0 9 -3.5t4 -8.5
v-232q0 -16 -14 -26q-16 -10 -41 -22.5t-82.5 -27t-116.5 -14.5q-151 0 -256.5 104.5t-105.5 254.5zM418 775q-51 0 -87.5 32t-43.5 79q-2 14 10 14h13q8 0 12 -12q9 -34 34.5 -56t61.5 -22q34 0 60.5 22.5t34.5 55.5q3 12 12 12h14q12 0 10 -14q-8 -48 -44.5 -79.5
t-86.5 -31.5z" />
    <glyph glyph-name="gbreve" unicode="&#x11f;" horiz-adv-x="462" 
d="M35 34q0 30 15.5 56t27.5 35.5t23 15.5q-31 39 -31 100q0 73 48 121t127 48h164q13 0 13 -13v-11q0 -10 -9 -12l-72 -5q13 -7 25 -19t24.5 -41.5t12.5 -67.5q0 -69 -46 -117.5t-120 -48.5q-76 0 -109 36q-7 -3 -17 -9.5t-22 -24t-12 -38.5q0 -58 79 -58h145q68 0 108 -32
t40 -96q0 -66 -57.5 -114.5t-146.5 -48.5q-94 0 -144.5 45t-50.5 103q0 66 63 105q-24 5 -51 28.5t-27 62.5zM238 114q55 0 89 36.5t34 91.5q0 60 -35.5 94t-87.5 34q-57 0 -92 -36.5t-35 -91.5t33.5 -91.5t93.5 -36.5zM94 -157q0 -44 40.5 -78t109.5 -34q67 0 113 35t46 86
q0 38 -25 63t-77 25h-126q-8 -1 -25.5 -10t-36.5 -32.5t-19 -54.5zM255 538q-50 0 -86.5 31.5t-44.5 78.5q-2 14 10 14h13q8 0 12 -11q8 -35 34 -57t62 -22q34 0 60.5 22.5t34.5 56.5q3 11 12 11h14q12 0 10 -14q-8 -47 -44.5 -78.5t-86.5 -31.5z" />
    <glyph glyph-name="Gdotaccent" unicode="&#x120;" horiz-adv-x="743" 
d="M56 349q0 150 105.5 255.5t256.5 105.5q140 0 242 -93q10 -9 1 -18q-5 -6 -16 -17q-8 -9 -17 0q-90 84 -211 84q-130 0 -220.5 -92.5t-90.5 -222.5t90.5 -222.5t220.5 -92.5q55 0 105.5 13t72 24t30.5 18v188h-171q-13 0 -13 13v20q0 12 13 12h205q5 0 9 -3.5t4 -8.5
v-232q0 -16 -14 -26q-16 -10 -41 -22.5t-82.5 -27t-116.5 -14.5q-151 0 -256.5 104.5t-105.5 254.5zM417 810q-16 0 -27 11t-11 27t11 27t27 11t27 -11t11 -27t-11 -27t-27 -11z" />
    <glyph glyph-name="gdotaccent" unicode="&#x121;" horiz-adv-x="462" 
d="M35 34q0 30 15.5 56t27.5 35.5t23 15.5q-31 39 -31 100q0 73 48 121t127 48h164q13 0 13 -13v-11q0 -10 -9 -12l-72 -5q13 -7 25 -19t24.5 -41.5t12.5 -67.5q0 -69 -46 -117.5t-120 -48.5q-76 0 -109 36q-7 -3 -17 -9.5t-22 -24t-12 -38.5q0 -58 79 -58h145q68 0 108 -32
t40 -96q0 -66 -57.5 -114.5t-146.5 -48.5q-94 0 -144.5 45t-50.5 103q0 66 63 105q-24 5 -51 28.5t-27 62.5zM238 114q55 0 89 36.5t34 91.5q0 60 -35.5 94t-87.5 34q-57 0 -92 -36.5t-35 -91.5t33.5 -91.5t93.5 -36.5zM94 -157q0 -44 40.5 -78t109.5 -34q67 0 113 35t46 86
q0 38 -25 63t-77 25h-126q-8 -1 -25.5 -10t-36.5 -32.5t-19 -54.5zM252 582q-16 0 -27 11.5t-11 26.5q0 16 11 27t27 11t27 -11t11 -27q0 -15 -11 -26.5t-27 -11.5z" />
    <glyph glyph-name="Gcommaaccent" unicode="&#x122;" horiz-adv-x="743" 
d="M56 349q0 150 105.5 255.5t256.5 105.5q140 0 242 -93q10 -9 1 -18q-5 -6 -16 -17q-8 -9 -17 0q-90 84 -211 84q-130 0 -220.5 -92.5t-90.5 -222.5t90.5 -222.5t220.5 -92.5q55 0 105.5 13t72 24t30.5 18v188h-171q-13 0 -13 13v20q0 12 13 12h205q5 0 9 -3.5t4 -8.5
v-232q0 -16 -14 -26q-16 -10 -41 -22.5t-82.5 -27t-116.5 -14.5q-151 0 -256.5 104.5t-105.5 254.5zM373 -141q0 18 11.5 28.5t30.5 10.5q24 0 40 -23.5t16 -70.5q0 -52 -24.5 -89t-47.5 -50q-12 -7 -17 0l-8 10q-7 8 4 16q51 41 56 95q1 22 -5 38q-8 -5 -16 -5
q-19 0 -29.5 11.5t-10.5 28.5z" />
    <glyph glyph-name="gcommaaccent" unicode="&#x123;" horiz-adv-x="462" 
d="M248 538q-24 0 -40 23.5t-16 70.5q0 52 24.5 89t47.5 50q12 7 17 0l8 -10q7 -8 -4 -16q-51 -41 -56 -95q-1 -22 5 -38q8 5 16 5q19 0 29.5 -11.5t10.5 -28.5q0 -18 -11.5 -28.5t-30.5 -10.5zM35 34q0 30 15.5 56t27.5 35.5t23 15.5q-31 39 -31 100q0 73 48 121t127 48
h164q13 0 13 -13v-11q0 -10 -9 -12l-72 -5q13 -7 25 -19t24.5 -41.5t12.5 -67.5q0 -69 -46 -117.5t-120 -48.5q-76 0 -109 36q-7 -3 -17 -9.5t-22 -24t-12 -38.5q0 -58 79 -58h145q68 0 108 -32t40 -96q0 -66 -57.5 -114.5t-146.5 -48.5q-94 0 -144.5 45t-50.5 103
q0 66 63 105q-24 5 -51 28.5t-27 62.5zM238 114q55 0 89 36.5t34 91.5q0 60 -35.5 94t-87.5 34q-57 0 -92 -36.5t-35 -91.5t33.5 -91.5t93.5 -36.5zM94 -157q0 -44 40.5 -78t109.5 -34q67 0 113 35t46 86q0 38 -25 63t-77 25h-126q-8 -1 -25.5 -10t-36.5 -32.5t-19 -54.5z
" />
    <glyph glyph-name="Hcircumflex" unicode="&#x124;" horiz-adv-x="755" 
d="M106 13v674q0 13 13 13h21q13 0 13 -13v-307h449v307q0 13 13 13h21q13 0 13 -13v-674q0 -13 -13 -13h-21q-13 0 -13 13v325h-449v-325q0 -13 -13 -13h-21q-13 0 -13 13zM273 768q-9 -6 -15 2l-9 11q-5 7 4 14l121 98q5 5 10 5h3q5 0 10 -5l121 -98q9 -7 4 -14l-9 -11
q-6 -8 -15 -2l-113 84z" />
    <glyph glyph-name="hcircumflex" unicode="&#x125;" horiz-adv-x="495" 
d="M76 13v674q0 13 14 13h16q13 0 13 -13v-341q64 64 145 64q78 0 119.5 -47t41.5 -136v-214q0 -13 -13 -13h-18q-13 0 -13 13v214q0 69 -31 104.5t-88 35.5q-37 0 -73 -18t-49.5 -30.5t-20.5 -21.5v-284q0 -13 -13 -13h-19q-11 0 -11 13zM-14 767q-9 -6 -15 2l-9 11
q-5 7 4 14l121 98q5 5 10 5h3q5 0 10 -5l121 -98q9 -7 4 -14l-9 -11q-6 -8 -15 -2l-113 84z" />
    <glyph glyph-name="Hbar" unicode="&#x126;" horiz-adv-x="756" 
d="M106 13v529h-26q-12 0 -12 14v4q0 13 12 13h26v114q0 13 13 13h21q13 0 13 -13v-114h449v114q0 13 23 13h12q13 0 13 -13v-114h26q13 0 13 -15v-4q0 -12 -13 -12h-26v-529q0 -13 -13 -13h-6.5h-7h-6t-6 1t-5 2.5t-3.5 4t-1 5.5v325h-449v-325q0 -13 -16 -13h-18
q-13 0 -13 13zM153 381h449v161h-449v-161z" />
    <glyph glyph-name="hbar" unicode="&#x127;" horiz-adv-x="495" 
d="M76 13v529h-39q-12 0 -12 14v4q0 13 12 13h39v114q0 13 13 13h17q13 0 13 -13v-114h191q13 0 13 -15v-4q0 -5 -4 -8.5t-9 -3.5h-191v-196q64 64 145 64q78 0 119.5 -47t41.5 -136v-214q0 -13 -13 -13h-18q-13 0 -13 13v214q0 69 -31 104.5t-88 35.5q-37 0 -73 -18
t-49.5 -30.5t-20.5 -21.5v-284q0 -13 -14 -13h-16q-13 0 -13 13z" />
    <glyph glyph-name="Itilde" unicode="&#x128;" horiz-adv-x="260" 
d="M105 13v674q0 13 13 13h22q13 0 13 -13v-674q0 -13 -14 -13h-21q-13 0 -13 13zM-3 799l-12 5q-10 3 -6 14q24 61 57 78q17 8 36 8q24 0 41 -14t24.5 -31.5t19.5 -31.5t28 -14q37 0 57 59q4 13 15 7l11 -4q8 -4 6 -13q-2 -8 -6 -17.5t-14 -27.5t-29 -29.5t-43 -11.5
t-40.5 14.5t-24.5 31.5t-20.5 31.5t-27.5 14.5q-37 0 -57 -62q-3 -12 -15 -7z" />
    <glyph glyph-name="itilde" unicode="&#x129;" horiz-adv-x="196" 
d="M-33 579l-12 5q-10 3 -6 14q24 61 57 78q17 8 36 8q24 0 41 -14t24.5 -31.5t19.5 -31.5t28 -14q37 0 57 59q4 13 15 7l11 -4q8 -4 6 -13q-2 -8 -6 -17.5t-14 -27.5t-29 -29.5t-43 -11.5t-40.5 14.5t-24.5 31.5t-20.5 31.5t-27.5 14.5q-37 0 -57 -62q-3 -12 -15 -7zM75 13
v374q0 13 13 13h18q13 0 13 -13v-374q0 -13 -14 -13h-17q-13 0 -13 13z" />
    <glyph glyph-name="Imacron" unicode="&#x12a;" horiz-adv-x="260" 
d="M106 13v674q0 13 13 13h22q13 0 13 -13v-674q0 -13 -14 -13h-21q-13 0 -13 13zM-6 831q-13 0 -13 13v12q0 13 13 13h272q13 0 13 -13v-12q0 -13 -13 -13h-272z" />
    <glyph glyph-name="imacron" unicode="&#x12b;" horiz-adv-x="196" 
d="M-37 595q-13 0 -13 12v13q0 13 13 13h272q13 0 13 -13v-13q0 -12 -13 -12h-272zM76 13v374q0 13 13 13h18q13 0 13 -13v-374q0 -13 -14 -13h-17q-13 0 -13 13z" />
    <glyph glyph-name="Ibreve" unicode="&#x12c;" horiz-adv-x="260" 
d="M106 13v674q0 13 13 13h22q13 0 13 -13v-674q0 -13 -14 -13h-21q-13 0 -13 13zM130 775q-51 0 -87.5 32t-43.5 79q-2 14 10 14h13q8 0 12 -12q9 -34 34.5 -56t61.5 -22q34 0 60.5 22.5t34.5 55.5q3 12 12 12h14q12 0 10 -14q-8 -48 -44.5 -79.5t-86.5 -31.5z" />
    <glyph glyph-name="ibreve" unicode="&#x12d;" horiz-adv-x="196" 
d="M99 538q-50 0 -86.5 31.5t-44.5 78.5q-2 14 10 14h13q8 0 12 -11q8 -35 34 -57t62 -22q34 0 60.5 22.5t34.5 56.5q3 11 12 11h14q12 0 10 -14q-8 -47 -44.5 -78.5t-86.5 -31.5zM76 13v374q0 13 13 13h18q13 0 13 -13v-374q0 -13 -14 -13h-17q-13 0 -13 13z" />
    <glyph glyph-name="Iogonek" unicode="&#x12e;" horiz-adv-x="261" 
d="M107 11v676q0 13 13 13h22q13 0 13 -13v-674q0 -13 -14 -13h-15q-66 -47 -66 -113q0 -32 21.5 -49.5t52.5 -17.5q29 0 62 15q11 6 13 -8l1 -10q1 -10 -8 -16q-29 -17 -73 -17q-46 0 -77 24.5t-31 73.5q0 36 20.5 67.5t37.5 44t28 17.5z" />
    <glyph glyph-name="iogonek" unicode="&#x12f;" horiz-adv-x="197" 
d="M99 596q-14 0 -24 9.5t-10 23.5t10 24.5t24 10.5t24 -10.5t10 -24.5t-10 -23.5t-24 -9.5zM77 11v376q0 13 13 13h18q13 0 13 -13v-374q0 -13 -13 -13h-11q-66 -47 -66 -113q0 -32 21.5 -49.5t52.5 -17.5q29 0 62 15q11 6 13 -8l1 -10q1 -10 -8 -16q-29 -17 -73 -17
q-46 0 -77 24.5t-31 73.5q0 27 11 51.5t27 40.5t27.5 24.5t19.5 12.5z" />
    <glyph glyph-name="Idotaccent" unicode="&#x130;" horiz-adv-x="260" 
d="M106 13v674q0 13 13 13h22q13 0 13 -13v-674q0 -13 -14 -13h-21q-13 0 -13 13zM129 810q-16 0 -27 11t-11 27t11 27t27 11t27 -11t11 -27t-11 -27t-27 -11z" />
    <glyph glyph-name="dotlessi" unicode="&#x131;" horiz-adv-x="196" 
d="M76 13v374q0 13 13 13h18q13 0 13 -13v-374q0 -13 -14 -13h-17q-13 0 -13 13z" />
    <glyph glyph-name="IJ" unicode="&#x132;" horiz-adv-x="660" 
d="M106 13v674q0 13 13 13h22q13 0 13 -13v-674q0 -13 -14 -13h-21q-13 0 -13 13zM244 65q-6 10 1 17l13 12q8 8 17 0q20 -20 28.5 -28t36.5 -21t58 -13q66 0 106 45.5t40 132.5v477q0 13 14 13h20q13 0 13 -13v-476q0 -104 -52 -162.5t-142 -58.5q-92 0 -153 75z" />
    <glyph glyph-name="ij" unicode="&#x133;" horiz-adv-x="432" 
d="M98 596q-14 0 -24 9.5t-10 23.5t10 24.5t24 10.5t24 -10.5t10 -24.5t-10 -23.5t-24 -9.5zM76 13v374q0 13 13 13h18q13 0 13 -13v-374q0 -13 -13 -13h-20q-11 0 -11 13zM334 596q-14 0 -24 9.5t-10 23.5t10 24.5t24 10.5t24 -10.5t10 -24.5t-10 -23.5t-24 -9.5zM313 -137
v524q0 13 13 13h17q13 0 13 -13v-524q0 -86 -39 -129.5t-107 -43.5q-35 0 -65.5 13.5t-46.5 29.5q-7 7 -2 14l10 16q7 10 17 0q43 -33 87 -33q103 0 103 133z" />
    <glyph glyph-name="Jcircumflex" unicode="&#x134;" horiz-adv-x="392" 
d="M-25 65q-6 10 1 17l13 12q9 8 17 0q20 -20 28.5 -28t36.5 -21t58 -13q66 0 106 45.5t40 132.5v477q0 13 14 13h20q13 0 13 -13v-476q0 -104 -52 -162.5t-142 -58.5q-92 0 -153 75zM185 768q-9 -6 -15 2l-9 11q-5 7 4 14l121 98q5 5 10 5h3q5 0 10 -5l121 -98q9 -7 4 -14
l-9 -11q-6 -8 -15 -2l-113 84z" />
    <glyph glyph-name="jcircumflex" unicode="&#x135;" horiz-adv-x="195" 
d="M76 -137v524q0 13 13 13h17q13 0 13 -13v-524q0 -86 -39 -129.5t-107 -43.5q-35 0 -65.5 13.5t-46.5 29.5q-7 7 -2 14l10 16q7 10 17 0q43 -33 87 -33q103 0 103 133zM-15 550q-9 -6 -15 2l-9 11q-5 7 4 14l121 98q5 5 10 5h3q5 0 10 -5l121 -98q9 -7 4 -14l-9 -11
q-6 -8 -15 -2l-113 84z" />
    <glyph glyph-name="Kcommaaccent" unicode="&#x136;" horiz-adv-x="590" 
d="M106 13v672q0 15 15 15h18q15 0 15 -15v-309l340 317q8 7 20 7h28q8 0 9.5 -6t-3.5 -11l-348 -323l359 -343q5 -4 2.5 -10.5t-11.5 -6.5h-32q-12 0 -22 10l-342 332v-329q0 -13 -15 -13h-20q-13 0 -13 13zM279 -141q0 18 11.5 28.5t30.5 10.5q24 0 40 -23.5t16 -70.5
q0 -52 -24.5 -89t-47.5 -50q-12 -7 -17 0l-8 10q-7 8 4 16q51 41 56 95q1 22 -5 38q-8 -5 -16 -5q-19 0 -29.5 11.5t-10.5 28.5z" />
    <glyph glyph-name="kcommaaccent" unicode="&#x137;" horiz-adv-x="428" 
d="M76 13v674q0 13 13 13h17q13 0 13 -13v-448l213 155q8 6 16 6h29q5 0 7 -3.5t1 -8t-5 -6.5l-215 -158l241 -207q6 -5 3.5 -11t-8.5 -6h-31q-10 0 -20 8l-231 199v-194q0 -13 -13 -13h-19q-11 0 -11 13zM174 -141q0 18 11.5 28.5t30.5 10.5q24 0 40 -23.5t16 -70.5
q0 -52 -24.5 -89t-47.5 -50q-12 -7 -17 0l-8 10q-7 8 4 16q51 41 56 95q1 22 -5 38q-8 -5 -16 -5q-19 0 -29.5 11.5t-10.5 28.5z" />
    <glyph glyph-name="kgreenlandic" unicode="&#x138;" horiz-adv-x="432" 
d="M76 13v374q0 13 13 13h17q13 0 13 -13v-170l223 177q8 6 16 6h29q5 0 7 -3t1 -7.5t-5 -7.5l-227 -180l243 -185q6 -5 3.5 -11t-8.5 -6h-31q-10 0 -20 8l-231 177v-172q0 -13 -13 -13h-19q-11 0 -11 13z" />
    <glyph glyph-name="Lacute" unicode="&#x139;" horiz-adv-x="489" 
d="M106 13v674q0 13 13 13h22q5 0 8.5 -4t3.5 -9v-645h319q13 0 13 -13v-18q0 -11 -13 -11h-353q-13 0 -13 13zM55 782q-12 -5 -16 3l-5 10q-3 9 6 14l164 90q12 6 17 -3l10 -20q5 -10 -4 -15z" />
    <glyph glyph-name="lacute" unicode="&#x13a;" horiz-adv-x="196" 
d="M76 13v674q0 13 13 13h18q13 0 13 -13v-674q0 -13 -13 -13h-20q-11 0 -11 13zM19 775q-10 -4 -14 4l-6 13q-4 8 6 14l165 87q11 7 17 -3l10 -20q5 -11 -9 -18z" />
    <glyph glyph-name="Lcommaaccent" unicode="&#x13b;" horiz-adv-x="490" 
d="M106 13v674q0 13 13 13h22q5 0 8.5 -4t3.5 -9v-645h319q13 0 13 -13v-18q0 -11 -13 -11h-353q-13 0 -13 13zM254 -141q0 18 11.5 28.5t30.5 10.5q24 0 40 -23.5t16 -70.5q0 -52 -24.5 -89t-47.5 -50q-12 -7 -17 0l-8 10q-7 8 4 16q51 41 56 95q1 22 -5 38q-8 -5 -16 -5
q-19 0 -29.5 11.5t-10.5 28.5z" />
    <glyph glyph-name="lcommaaccent" unicode="&#x13c;" horiz-adv-x="196" 
d="M76 13v674q0 13 13 13h18q13 0 13 -13v-674q0 -13 -13 -13h-20q-11 0 -11 13zM55 -141q0 18 11.5 28.5t30.5 10.5q24 0 40 -23.5t16 -70.5q0 -52 -24.5 -89t-47.5 -50q-12 -7 -17 0l-8 10q-7 8 4 16q51 41 56 95q1 22 -5 38q-8 -5 -16 -5q-19 0 -29.5 11.5t-10.5 28.5z
" />
    <glyph glyph-name="Lcaron" unicode="&#x13d;" horiz-adv-x="489" 
d="M106 13v674q0 13 13 13h22q5 0 8.5 -4t3.5 -9v-645h319q13 0 13 -13v-18q0 -11 -13 -11h-353q-13 0 -13 13zM349 671q0 18 11.5 28.5t30.5 10.5q24 0 40 -23.5t16 -70.5q0 -52 -24.5 -89t-47.5 -50q-12 -7 -17 0l-8 10q-7 8 4 16q51 41 56 95q1 22 -5 38q-8 -5 -16 -5
q-19 0 -29.5 11.5t-10.5 28.5z" />
    <glyph glyph-name="lcaron" unicode="&#x13e;" horiz-adv-x="226" 
d="M76 13v674q0 13 13 13h18q13 0 13 -13v-674q0 -13 -13 -13h-20q-11 0 -11 13zM241 477l-8 10q-7 8 4 16q51 41 56 95q1 22 -5 38q-8 -5 -16 -5q-19 0 -29.5 11.5t-10.5 28.5q0 18 11.5 28.5t30.5 10.5q24 0 40 -23.5t16 -70.5q0 -52 -24.5 -89t-47.5 -50q-12 -7 -17 0z
" />
    <glyph glyph-name="Ldot" unicode="&#x13f;" horiz-adv-x="549" 
d="M106 13v674q0 13 13 13h22q5 0 8.5 -4t3.5 -9v-645h319q13 0 13 -13v-18q0 -11 -13 -11h-353q-13 0 -13 13zM460 316q-16 0 -27 11t-11 27t11 27t27 11t27 -11t11 -27t-11 -27t-27 -11z" />
    <glyph glyph-name="ldot" unicode="&#x140;" horiz-adv-x="300" 
d="M76 13v674q0 13 13 13h18q13 0 13 -13v-674q0 -13 -13 -13h-20q-11 0 -11 13zM248 321q-16 0 -27 11.5t-11 26.5q0 16 11 27t27 11t27 -11t11 -27q0 -15 -11 -26.5t-27 -11.5z" />
    <glyph glyph-name="Lslash" unicode="&#x141;" horiz-adv-x="497" 
d="M114 13v307l-33 -16q-11 -7 -16 4l-4 7q-6 10 5 16l48 24v332q0 13 13 13h21q13 0 13 -13v-305l146 74q12 8 17 -5l3 -6q6 -9 -5 -16l-161 -83v-304h329q13 0 13 -20v-9q0 -13 -13 -13h-363q-13 0 -13 13z" />
    <glyph glyph-name="lslash" unicode="&#x142;" horiz-adv-x="234" 
d="M94 13v322l-68 -34q-11 -6 -16 4l-3 6q-7 10 4 17l83 42v317q0 13 13 13h17q13 0 13 -13v-293l115 59q10 7 16 -5l3 -6q6 -10 -5 -16l-129 -67v-346q0 -13 -14 -13h-16q-13 0 -13 13z" />
    <glyph glyph-name="Nacute" unicode="&#x143;" horiz-adv-x="771" 
d="M106 13v684q0 13 15 13h17l480 -625h1v602q0 13 13 13h20q13 0 13 -13v-684q0 -13 -16 -13h-13q-7 0 -484 631h-1v-608q0 -13 -13 -13h-19q-13 0 -13 13zM323 782q-12 -5 -16 3l-5 10q-3 9 6 14l164 90q12 6 17 -3l10 -20q5 -10 -4 -15z" />
    <glyph glyph-name="nacute" unicode="&#x144;" horiz-adv-x="495" 
d="M76 13v374q0 13 14 13h10q10 0 12 -10l4 -43q10 11 26 23t51 26t71 14q82 0 121.5 -48t39.5 -135v-214q0 -13 -13 -13h-18q-13 0 -13 13v214q0 69 -31 104.5t-88 35.5q-37 0 -72.5 -17.5t-49.5 -30.5t-21 -21v-285q0 -13 -13 -13h-19q-11 0 -11 13zM173 558q-10 -4 -14 4
l-6 13q-4 8 6 14l165 87q11 7 17 -3l10 -20q5 -11 -9 -18z" />
    <glyph glyph-name="Ncommaaccent" unicode="&#x145;" horiz-adv-x="771" 
d="M106 13v684q0 13 15 13h17l480 -625h1v602q0 13 13 13h20q13 0 13 -13v-684q0 -13 -16 -13h-13q-7 0 -484 631h-1v-608q0 -13 -13 -13h-19q-13 0 -13 13zM354 -141q0 18 11.5 28.5t30.5 10.5q24 0 40 -23.5t16 -70.5q0 -52 -24.5 -89t-47.5 -50q-12 -7 -17 0l-8 10
q-7 8 4 16q51 41 56 95q1 22 -5 38q-8 -5 -16 -5q-19 0 -29.5 11.5t-10.5 28.5z" />
    <glyph glyph-name="ncommaaccent" unicode="&#x146;" horiz-adv-x="496" 
d="M76 13v374q0 13 14 13h10q10 0 12 -10l4 -43q10 11 26 23t51 26t71 14q82 0 121.5 -48t39.5 -135v-214q0 -13 -13 -13h-18q-13 0 -13 13v214q0 69 -31 104.5t-88 35.5q-37 0 -72.5 -17.5t-49.5 -30.5t-21 -21v-285q0 -13 -13 -13h-19q-11 0 -11 13zM206 -141
q0 18 11.5 28.5t30.5 10.5q24 0 40 -23.5t16 -70.5q0 -52 -24.5 -89t-47.5 -50q-12 -7 -17 0l-8 10q-7 8 4 16q51 41 56 95q1 22 -5 38q-8 -5 -16 -5q-19 0 -29.5 11.5t-10.5 28.5z" />
    <glyph glyph-name="Ncaron" unicode="&#x147;" horiz-adv-x="771" 
d="M106 13v684q0 13 15 13h17l480 -625h1v602q0 13 13 13h20q13 0 13 -13v-684q0 -13 -16 -13h-13q-7 0 -484 631h-1v-608q0 -13 -13 -13h-19q-13 0 -13 13zM390 763q-5 0 -10 5l-121 98q-9 7 -4 14l9 11q6 8 15 2l113 -84l112 84q9 6 15 -2l9 -11q5 -7 -4 -14l-121 -98
q-5 -5 -10 -5h-3z" />
    <glyph glyph-name="ncaron" unicode="&#x148;" horiz-adv-x="495" 
d="M76 13v374q0 13 14 13h10q10 0 12 -10l4 -43q10 11 26 23t51 26t71 14q82 0 121.5 -48t39.5 -135v-214q0 -13 -13 -13h-18q-13 0 -13 13v214q0 69 -31 104.5t-88 35.5q-37 0 -72.5 -17.5t-49.5 -30.5t-21 -21v-285q0 -13 -13 -13h-19q-11 0 -11 13zM250 545q-5 0 -10 5
l-121 98q-9 7 -4 14l9 11q6 8 15 2l113 -84l112 84q9 6 15 -2l9 -11q5 -7 -4 -14l-121 -98q-5 -5 -10 -5h-3z" />
    <glyph glyph-name="napostrophe" unicode="&#x149;" horiz-adv-x="495" 
d="M76 13v374q0 13 14 13h10q10 0 12 -10l4 -43q10 11 26 23t51 26t71 14q82 0 121.5 -48t39.5 -135v-214q0 -13 -13 -13h-18q-13 0 -13 13v214q0 69 -31 104.5t-88 35.5q-37 0 -72.5 -17.5t-49.5 -30.5t-21 -21v-285q0 -13 -13 -13h-19q-11 0 -11 13zM-105 671
q0 18 11.5 28.5t30.5 10.5q24 0 40 -23.5t16 -70.5q0 -52 -24.5 -89t-47.5 -50q-12 -7 -17 0l-8 10q-7 8 4 16q51 41 56 95q1 22 -5 38q-8 -5 -16 -5q-19 0 -29.5 11.5t-10.5 28.5z" />
    <glyph glyph-name="Eng" unicode="&#x14a;" horiz-adv-x="771" 
d="M106 13v684q0 13 15 13h17l480 -628h1v605q0 13 13 13h20q13 0 13 -13v-824q0 -86 -39 -129.5t-107 -43.5q-35 0 -65.5 13.5t-46.5 29.5q-7 7 -2 14l10 16q7 10 17 0q43 -33 87 -33q101 0 101 133v143q-37 45 -468 615h-1v-608q0 -13 -13 -13h-19q-13 0 -13 13z" />
    <glyph glyph-name="eng" unicode="&#x14b;" horiz-adv-x="496" 
d="M76 13v374q0 13 14 13h10q10 0 12 -10l4 -43q10 11 26 23t51 26t71 14q82 0 121.5 -48t39.5 -135v-364q0 -86 -39 -129.5t-107 -43.5q-35 0 -65.5 13.5t-46.5 29.5q-7 7 -2 14l10 16q7 10 17 0q43 -33 87 -33q102 0 102 133v364q0 69 -31 104.5t-88 35.5
q-37 0 -72.5 -17.5t-49.5 -30.5t-21 -21v-285q0 -13 -13 -13h-19q-11 0 -11 13z" />
    <glyph glyph-name="Omacron" unicode="&#x14c;" horiz-adv-x="833" 
d="M56 349q0 150 105 255.5t255 105.5q151 0 256 -105.5t105 -255.5q0 -151 -105 -255t-256 -104q-150 0 -255 104.5t-105 254.5zM100 349q0 -131 92.5 -223t223.5 -92t224 92t93 223t-93 224t-224 93t-223.5 -93t-92.5 -224zM281 831q-13 0 -13 13v12q0 13 13 13h272
q13 0 13 -13v-12q0 -13 -13 -13h-272z" />
    <glyph glyph-name="omacron" unicode="&#x14d;" horiz-adv-x="494" 
d="M46 201q0 86 58.5 147.5t142.5 61.5t142.5 -61.5t58.5 -147.5q0 -88 -58.5 -149.5t-142.5 -61.5t-142.5 61.5t-58.5 149.5zM89 201q0 -71 45.5 -120.5t112.5 -49.5q66 0 111.5 49.5t45.5 120.5q0 69 -45.5 118t-111.5 49t-112 -49t-46 -118zM111 595q-13 0 -13 12v13
q0 13 13 13h272q13 0 13 -13v-13q0 -12 -13 -12h-272z" />
    <glyph glyph-name="Obreve" unicode="&#x14e;" horiz-adv-x="833" 
d="M56 349q0 150 105 255.5t255 105.5q151 0 256 -105.5t105 -255.5q0 -151 -105 -255t-256 -104q-150 0 -255 104.5t-105 254.5zM100 349q0 -131 92.5 -223t223.5 -92t224 92t93 223t-93 224t-224 93t-223.5 -93t-92.5 -224zM417 775q-51 0 -87.5 32t-43.5 79q-2 14 10 14
h13q8 0 12 -12q9 -34 34.5 -56t61.5 -22q34 0 60.5 22.5t34.5 55.5q3 12 12 12h14q12 0 10 -14q-8 -48 -44.5 -79.5t-86.5 -31.5z" />
    <glyph glyph-name="obreve" unicode="&#x14f;" horiz-adv-x="494" 
d="M46 201q0 86 58.5 147.5t142.5 61.5t142.5 -61.5t58.5 -147.5q0 -88 -58.5 -149.5t-142.5 -61.5t-142.5 61.5t-58.5 149.5zM89 201q0 -71 45.5 -120.5t112.5 -49.5q66 0 111.5 49.5t45.5 120.5q0 69 -45.5 118t-111.5 49t-112 -49t-46 -118zM247 538q-50 0 -86.5 31.5
t-44.5 78.5q-2 14 10 14h13q8 0 12 -11q8 -35 34 -57t62 -22q34 0 60.5 22.5t34.5 56.5q3 11 12 11h14q12 0 10 -14q-8 -47 -44.5 -78.5t-86.5 -31.5z" />
    <glyph glyph-name="Ohungarumlaut" unicode="&#x150;" horiz-adv-x="833" 
d="M56 349q0 150 105 255.5t255 105.5q151 0 256 -105.5t105 -255.5q0 -151 -105 -255t-256 -104q-150 0 -255 104.5t-105 254.5zM100 349q0 -131 92.5 -223t223.5 -92t224 92t93 223t-93 224t-224 93t-223.5 -93t-92.5 -224zM501 766q-12 0 -7 12l79 159q5 11 14 11h22
q8 0 11 -5t-1 -12l-93 -157q-4 -8 -13 -8h-12zM335 766q-12 0 -7 12l79 159q5 11 14 11h22q8 0 11 -5t-1 -12l-93 -157q-4 -8 -13 -8h-12z" />
    <glyph glyph-name="ohungarumlaut" unicode="&#x151;" horiz-adv-x="494" 
d="M46 201q0 86 58.5 147.5t142.5 61.5t142.5 -61.5t58.5 -147.5q0 -88 -58.5 -149.5t-142.5 -61.5t-142.5 61.5t-58.5 149.5zM89 201q0 -71 45.5 -120.5t112.5 -49.5q66 0 111.5 49.5t45.5 120.5q0 69 -45.5 118t-111.5 49t-112 -49t-46 -118zM327 518q-12 0 -7 12l79 159
q5 11 14 11h22q8 0 11 -5t-1 -12l-93 -157q-4 -8 -13 -8h-12zM161 518q-12 0 -7 12l79 159q5 11 14 11h22q8 0 11 -5t-1 -12l-93 -157q-4 -8 -13 -8h-12z" />
    <glyph glyph-name="OE" unicode="&#x152;" horiz-adv-x="976" 
d="M56 349q0 150 104.5 255.5t254.5 105.5q38 0 85 -10h399q12 0 12 -13v-17q0 -13 -12 -13h-366v-276h317q13 0 13 -13v-17q0 -13 -13 -13h-317v-296h366q12 0 12 -13v-16q0 -13 -12 -13h-398q-47 -10 -86 -10q-151 0 -255 104t-104 255zM99 349q0 -131 92.5 -223
t223.5 -92q38 0 70 7v616q-37 8 -70 8q-131 0 -223.5 -92.5t-92.5 -223.5z" />
    <glyph glyph-name="oe" unicode="&#x153;" horiz-adv-x="788" 
d="M46 201q0 86 58 147.5t142 61.5q49 0 92 -21t71 -59q53 80 155 80q78 0 130 -52.5t52 -133.5q0 -39 -15 -39h-303v-66q16 -35 55.5 -62t83.5 -27q63 0 118 37q12 8 18 0l10 -14q5 -7 -4 -16q-17 -17 -59.5 -32t-85.5 -15q-97 0 -159 83q-60 -83 -159 -83q-84 0 -142 61.5
t-58 149.5zM428 221h274q0 62 -36.5 105t-101.5 43q-43 0 -81.5 -22t-54.5 -59v-67zM89 201q0 -71 45.5 -120.5t111.5 -49.5q46 0 86.5 28t54.5 60v170q-19 30 -57.5 54.5t-83.5 24.5q-66 0 -111.5 -49t-45.5 -118z" />
    <glyph glyph-name="Racute" unicode="&#x154;" horiz-adv-x="650" 
d="M106 13v674q0 13 13 13h248q92 0 157.5 -61.5t65.5 -152.5q0 -74 -46 -131t-119 -78l146 -259q4 -6 2 -12t-9 -6h-31q-9 0 -14 9l-145 262q-13 -1 -37 -1h-184v-257q0 -13 -16 -13h-18q-13 0 -13 13zM154 312h211q73 0 125 50.5t52 123.5q0 71 -52.5 119.5t-125.5 48.5
h-210v-342zM229 782q-12 -5 -16 3l-5 10q-3 9 6 14l164 90q12 6 17 -3l10 -20q5 -10 -4 -15z" />
    <glyph glyph-name="racute" unicode="&#x155;" horiz-adv-x="324" 
d="M76 13v374q0 13 13 13h12q10 0 12 -11l4 -41q44 62 125 62q30 0 62 -12q16 -5 11 -18l-8 -20q-4 -10 -16 -5q-30 12 -52 12q-35 0 -64.5 -17.5t-40 -30.5t-14.5 -21v-285q0 -13 -13 -13h-20q-11 0 -11 13zM100 558q-10 -4 -14 4l-6 13q-4 8 6 14l165 87q11 7 17 -3
l10 -20q5 -11 -9 -18z" />
    <glyph glyph-name="Rcommaaccent" unicode="&#x156;" horiz-adv-x="650" 
d="M106 13v674q0 13 13 13h248q92 0 157.5 -61.5t65.5 -152.5q0 -74 -46 -131t-119 -78l146 -259q4 -6 2 -12t-9 -6h-31q-9 0 -14 9l-145 262q-13 -1 -37 -1h-184v-257q0 -13 -16 -13h-18q-13 0 -13 13zM154 312h211q73 0 125 50.5t52 123.5q0 71 -52.5 119.5t-125.5 48.5
h-210v-342zM274 -141q0 18 11.5 28.5t30.5 10.5q24 0 40 -23.5t16 -70.5q0 -52 -24.5 -89t-47.5 -50q-12 -7 -17 0l-8 10q-7 8 4 16q51 41 56 95q1 22 -5 38q-8 -5 -16 -5q-19 0 -29.5 11.5t-10.5 28.5z" />
    <glyph glyph-name="rcommaaccent" unicode="&#x157;" horiz-adv-x="325" 
d="M76 13v374q0 13 13 13h12q10 0 12 -11l4 -41q44 62 125 62q30 0 62 -12q16 -5 11 -18l-8 -20q-4 -10 -16 -5q-30 12 -52 12q-35 0 -64.5 -17.5t-40 -30.5t-14.5 -21v-285q0 -13 -13 -13h-20q-11 0 -11 13zM51 -141q0 18 11.5 28.5t30.5 10.5q24 0 40 -23.5t16 -70.5
q0 -52 -24.5 -89t-47.5 -50q-12 -7 -17 0l-8 10q-7 8 4 16q51 41 56 95q1 22 -5 38q-8 -5 -16 -5q-19 0 -29.5 11.5t-10.5 28.5z" />
    <glyph glyph-name="Rcaron" unicode="&#x158;" horiz-adv-x="650" 
d="M106 13v674q0 13 13 13h248q92 0 157.5 -61.5t65.5 -152.5q0 -74 -46 -131t-119 -78l146 -259q4 -6 2 -12t-9 -6h-31q-9 0 -14 9l-145 262q-13 -1 -37 -1h-184v-257q0 -13 -16 -13h-18q-13 0 -13 13zM154 312h211q73 0 125 50.5t52 123.5q0 71 -52.5 119.5t-125.5 48.5
h-210v-342zM296 763q-5 0 -10 5l-121 98q-9 7 -4 14l9 11q6 8 15 2l113 -84l112 84q9 6 15 -2l9 -11q5 -7 -4 -14l-121 -98q-5 -5 -10 -5h-3z" />
    <glyph glyph-name="rcaron" unicode="&#x159;" horiz-adv-x="324" 
d="M76 13v374q0 13 13 13h12q10 0 12 -11l4 -41q44 62 125 62q30 0 62 -12q16 -5 11 -18l-8 -20q-4 -10 -16 -5q-30 12 -52 12q-35 0 -64.5 -17.5t-40 -30.5t-14.5 -21v-285q0 -13 -13 -13h-20q-11 0 -11 13zM177 545q-5 0 -10 5l-121 98q-9 7 -4 14l9 11q6 8 15 2l113 -84
l112 84q9 6 15 -2l9 -11q5 -7 -4 -14l-121 -98q-5 -5 -10 -5h-3z" />
    <glyph glyph-name="Sacute" unicode="&#x15a;" horiz-adv-x="543" 
d="M67 72q-11 9 -3 21l9 12q12 13 22 4q86 -77 185 -77q68 0 118 39.5t50 94.5q0 62 -47 99t-147 71q-100 35 -146.5 76t-46.5 121q0 30 12.5 59.5t36.5 56.5t67.5 44t99.5 17q44 0 87 -13t64 -25l21 -13q12 -9 4 -21q-5 -6 -8 -13q-9 -13 -22 -5q-71 47 -147 47
q-84 0 -126.5 -41t-42.5 -92q0 -59 41 -93t125 -62q115 -40 169.5 -85t54.5 -126q0 -74 -65 -126t-153 -52q-41 0 -80 10.5t-67 27t-42 26t-23 18.5zM207 774q-12 -5 -16 3l-5 10q-3 9 6 14l164 90q12 6 17 -3l10 -20q5 -10 -4 -15z" />
    <glyph glyph-name="sacute" unicode="&#x15b;" horiz-adv-x="370" 
d="M57 35q-9 6 -4 14l10 16q7 11 18 1q49 -39 107 -39q42 0 69 20.5t27 50.5q0 31 -26 49.5t-86 40.5q-60 21 -91.5 48t-31.5 70q0 39 34 71.5t97 32.5q64 0 113 -32q11 -7 4 -19l-6 -11q-7 -12 -19 -5q-42 28 -92 28q-43 0 -64.5 -20t-21.5 -44q0 -28 23 -45t72 -35
q37 -14 55.5 -22t42 -23.5t33.5 -35t10 -45.5q0 -45 -41.5 -78t-100.5 -33q-73 0 -131 45zM122 559q-10 -4 -14 4l-6 13q-4 8 6 14l165 87q11 7 17 -3l10 -20q5 -11 -9 -18z" />
    <glyph glyph-name="Scircumflex" unicode="&#x15c;" horiz-adv-x="543" 
d="M67 72q-11 9 -3 21l9 12q12 13 22 4q86 -77 185 -77q68 0 118 39.5t50 94.5q0 62 -47 99t-147 71q-100 35 -146.5 76t-46.5 121q0 30 12.5 59.5t36.5 56.5t67.5 44t99.5 17q44 0 87 -13t64 -25l21 -13q12 -9 4 -21q-5 -6 -8 -13q-9 -13 -22 -5q-71 47 -147 47
q-84 0 -126.5 -41t-42.5 -92q0 -59 41 -93t125 -62q115 -40 169.5 -85t54.5 -126q0 -74 -65 -126t-153 -52q-41 0 -80 10.5t-67 27t-42 26t-23 18.5zM162 760q-9 -6 -15 2l-9 11q-5 7 4 14l121 98q5 5 10 5h3q5 0 10 -5l121 -98q9 -7 4 -14l-9 -11q-6 -8 -15 -2l-113 84z
" />
    <glyph glyph-name="scircumflex" unicode="&#x15d;" horiz-adv-x="370" 
d="M57 35q-9 6 -4 14l10 16q7 11 18 1q49 -39 107 -39q42 0 69 20.5t27 50.5q0 31 -26 49.5t-86 40.5q-60 21 -91.5 48t-31.5 70q0 39 34 71.5t97 32.5q64 0 113 -32q11 -7 4 -19l-6 -11q-7 -12 -19 -5q-42 28 -92 28q-43 0 -64.5 -20t-21.5 -44q0 -28 23 -45t72 -35
q37 -14 55.5 -22t42 -23.5t33.5 -35t10 -45.5q0 -45 -41.5 -78t-100.5 -33q-73 0 -131 45zM70 551q-9 -6 -15 2l-9 11q-5 7 4 14l121 98q5 5 10 5h3q5 0 10 -5l121 -98q9 -7 4 -14l-9 -11q-6 -8 -15 -2l-113 84z" />
    <glyph glyph-name="Scedilla" unicode="&#x15e;" horiz-adv-x="545" 
d="M68 72q-11 9 -3 21l9 12q12 13 22 4q86 -77 185 -77q68 0 118 39.5t50 94.5q0 62 -47 99t-147 71q-100 35 -146.5 76t-46.5 121q0 30 12.5 59.5t36.5 56.5t67.5 44t99.5 17q44 0 87 -13t64 -25l21 -13q12 -9 4 -21l-8 -13q-9 -13 -22 -5q-71 47 -147 47q-84 0 -126.5 -41
t-42.5 -92q0 -59 41 -93t125 -62q115 -40 169.5 -85t54.5 -126q0 -74 -65 -126t-153 -52v-44q48 -6 77.5 -30.5t29.5 -66.5q0 -40 -28 -68.5t-70 -28.5q-27 0 -48.5 10.5t-29.5 23.5q-7 11 1 18l10 8q7 6 16 -3q18 -21 51 -21q26 0 42.5 17.5t16.5 42.5q0 57 -92 68
q-12 3 -12 13v63q-45 5 -87 24t-60.5 32.5t-28.5 23.5z" />
    <glyph glyph-name="scedilla" unicode="&#x15f;" horiz-adv-x="371" 
d="M58 35q-9 6 -4 14l10 16q7 11 18 1q49 -39 107 -39q42 0 69 20.5t27 50.5q0 31 -26 49.5t-86 40.5q-60 21 -91.5 48t-31.5 70q0 39 34 71.5t97 32.5q64 0 113 -32q11 -7 4 -19l-6 -11q-7 -12 -19 -5q-42 28 -92 28q-43 0 -64.5 -20t-21.5 -44q0 -28 23 -45t72 -35
q37 -14 55.5 -22t42 -23.5t33.5 -35t10 -45.5q0 -45 -41.5 -78t-100.5 -33h-1v-44q48 -6 77.5 -30.5t29.5 -66.5q0 -40 -28 -68.5t-70 -28.5q-27 0 -48.5 10.5t-29.5 23.5q-7 11 1 18l10 8q7 6 16 -3q18 -21 51 -21q26 0 42.5 17.5t16.5 42.5q0 57 -92 68q-12 3 -12 13v64
q-52 8 -94 42z" />
    <glyph glyph-name="Scaron" unicode="&#x160;" horiz-adv-x="543" 
d="M67 72q-11 9 -3 21l9 12q12 13 22 4q86 -77 185 -77q68 0 118 39.5t50 94.5q0 62 -47 99t-147 71q-100 35 -146.5 76t-46.5 121q0 30 12.5 59.5t36.5 56.5t67.5 44t99.5 17q44 0 87 -13t64 -25l21 -13q12 -9 4 -21q-5 -6 -8 -13q-9 -13 -22 -5q-71 47 -147 47
q-84 0 -126.5 -41t-42.5 -92q0 -59 41 -93t125 -62q115 -40 169.5 -85t54.5 -126q0 -74 -65 -126t-153 -52q-41 0 -80 10.5t-67 27t-42 26t-23 18.5zM274 755q-5 0 -10 5l-121 98q-9 7 -4 14l9 11q6 8 15 2l113 -84l112 84q9 6 15 -2l9 -11q5 -7 -4 -14l-121 -98
q-5 -5 -10 -5h-3z" />
    <glyph glyph-name="scaron" unicode="&#x161;" horiz-adv-x="370" 
d="M57 35q-9 6 -4 14l10 16q7 11 18 1q49 -39 107 -39q42 0 69 20.5t27 50.5q0 31 -26 49.5t-86 40.5q-60 21 -91.5 48t-31.5 70q0 39 34 71.5t97 32.5q64 0 113 -32q11 -7 4 -19l-6 -11q-7 -12 -19 -5q-42 28 -92 28q-43 0 -64.5 -20t-21.5 -44q0 -28 23 -45t72 -35
q37 -14 55.5 -22t42 -23.5t33.5 -35t10 -45.5q0 -45 -41.5 -78t-100.5 -33q-73 0 -131 45zM185 546q-5 0 -10 5l-121 98q-9 7 -4 14l9 11q6 8 15 2l113 -84l112 84q9 6 15 -2l9 -11q5 -7 -4 -14l-121 -98q-5 -5 -10 -5h-3z" />
    <glyph glyph-name="Tcommaaccent" unicode="&#x162;" horiz-adv-x="470" 
d="M211 13v644h-191q-13 0 -13 15v15q0 13 13 13h430q13 0 13 -13v-17q0 -13 -13 -13h-192v-644q0 -13 -16 -13h-18q-13 0 -13 13zM195 -141q0 18 11.5 28.5t30.5 10.5q24 0 40 -23.5t16 -70.5q0 -52 -24.5 -89t-47.5 -50q-12 -7 -17 0l-8 10q-7 8 4 16q51 41 56 95
q1 22 -5 38q-8 -5 -16 -5q-19 0 -29.5 11.5t-10.5 28.5z" />
    <glyph glyph-name="tcommaaccent" unicode="&#x163;" horiz-adv-x="330" 
d="M93 103v258h-47q-12 0 -12 13v16q0 10 12 10h47v109q0 13 13 13l17 1q13 0 13 -13v-110h139q13 0 13 -13v-13q0 -13 -13 -13h-139v-255q0 -40 9.5 -56.5t42.5 -16.5q47 0 91 27q10 6 16 -4l7 -12q6 -11 -3 -17q-46 -37 -116 -37q-57 0 -73.5 28t-16.5 85zM136 -141
q0 18 11.5 28.5t30.5 10.5q24 0 40 -23.5t16 -70.5q0 -52 -24.5 -89t-47.5 -50q-12 -7 -17 0l-8 10q-7 8 4 16q51 41 56 95q1 22 -5 38q-8 -5 -16 -5q-19 0 -29.5 11.5t-10.5 28.5z" />
    <glyph glyph-name="Tcaron" unicode="&#x164;" horiz-adv-x="472" 
d="M212 13v644h-191q-13 0 -13 15v15q0 13 13 13h430q13 0 13 -13v-17q0 -13 -13 -13h-192v-644q0 -13 -16 -13h-18q-13 0 -13 13zM234 763q-5 0 -10 5l-121 98q-9 7 -4 14l9 11q6 8 15 2l113 -84l112 84q9 6 15 -2l9 -11q5 -7 -4 -14l-121 -98q-5 -5 -10 -5h-3z" />
    <glyph glyph-name="tcaron" unicode="&#x165;" horiz-adv-x="329" 
d="M93 103v258h-47q-12 0 -12 13v16q0 10 12 10h47v109q0 13 13 13l17 1q13 0 13 -13v-110h139q13 0 13 -13v-13q0 -13 -13 -13h-139v-255q0 -40 9.5 -56.5t42.5 -16.5q47 0 91 27q10 6 16 -4l7 -12q6 -11 -3 -17q-46 -37 -116 -37q-57 0 -73.5 28t-16.5 85zM361 477l-8 10
q-7 8 4 16q51 41 56 95q1 22 -5 38q-8 -5 -16 -5q-19 0 -29.5 11.5t-10.5 28.5q0 18 11.5 28.5t30.5 10.5q24 0 40 -23.5t16 -70.5q0 -52 -24.5 -89t-47.5 -50q-12 -7 -17 0z" />
    <glyph glyph-name="Tbar" unicode="&#x166;" horiz-adv-x="472" 
d="M212 13v290h-125q-13 0 -13 15v4q0 5 4 8.5t9 3.5h125v324h-191q-13 0 -13 20v9q0 13 13 13h430q13 0 13 -13v-16q0 -13 -13 -13h-192v-324h128q5 0 9 -3.5t4 -8.5v-6q0 -13 -13 -13h-128v-290q0 -13 -22 -13h-12q-13 0 -13 13z" />
    <glyph glyph-name="tbar" unicode="&#x167;" horiz-adv-x="329" 
d="M93 103v83h-36q-13 0 -13 14v4q0 13 13 13h36v144h-47q-12 0 -12 13v16q0 10 12 10h47v109q0 13 13 13l17 1q13 0 13 -13v-110h139q13 0 13 -13v-13q0 -13 -13 -13h-139v-144h118q13 0 13 -13v-6q0 -12 -13 -12h-118v-80q0 -40 9.5 -56.5t42.5 -16.5q47 0 91 27
q10 6 16 -4l7 -12q6 -11 -3 -17q-46 -37 -116 -37q-57 0 -73.5 28t-16.5 85z" />
    <glyph glyph-name="Utilde" unicode="&#x168;" horiz-adv-x="720" 
d="M98 255v432q0 13 13 13h21q13 0 13 -13v-427q0 -99 58 -161.5t156 -62.5q99 0 157.5 62.5t58.5 160.5v428q0 13 14 13h20q13 0 13 -13v-432q0 -116 -72.5 -190.5t-190.5 -74.5q-117 0 -189 74.5t-72 190.5zM237 799l-12 5q-10 3 -6 14q24 61 57 78q17 8 36 8q24 0 41 -14
t24.5 -31.5t19.5 -31.5t28 -14q37 0 57 59q4 13 15 7l11 -4q8 -4 6 -13q-2 -8 -6 -17.5t-14 -27.5t-29 -29.5t-43 -11.5t-40.5 14.5t-24.5 31.5t-20.5 31.5t-27.5 14.5q-37 0 -57 -62q-3 -12 -15 -7z" />
    <glyph glyph-name="utilde" unicode="&#x169;" 
d="M71 172v215q0 13 13 13h18q13 0 13 -13v-215q0 -69 30.5 -104.5t88.5 -35.5q37 0 70 18t45 31t17 21v285q0 13 13 13h18q13 0 13 -13v-374q0 -13 -13 -13h-12q-10 0 -12 12l-4 39q-8 -11 -22.5 -23t-47 -25t-68.5 -13q-160 0 -160 182zM117 579l-12 5q-10 3 -6 14
q24 61 57 78q17 8 36 8q24 0 41 -14t24.5 -31.5t19.5 -31.5t28 -14q37 0 57 59q4 13 15 7l11 -4q8 -4 6 -13q-2 -8 -6 -17.5t-14 -27.5t-29 -29.5t-43 -11.5t-40.5 14.5t-24.5 31.5t-20.5 31.5t-27.5 14.5q-37 0 -57 -62q-3 -12 -15 -7z" />
    <glyph glyph-name="Umacron" unicode="&#x16a;" horiz-adv-x="720" 
d="M98 255v432q0 13 13 13h21q13 0 13 -13v-427q0 -99 58 -161.5t156 -62.5q99 0 157.5 62.5t58.5 160.5v428q0 13 14 13h20q13 0 13 -13v-432q0 -116 -72.5 -190.5t-190.5 -74.5q-117 0 -189 74.5t-72 190.5zM233 831q-13 0 -13 13v12q0 13 13 13h272q13 0 13 -13v-12
q0 -13 -13 -13h-272z" />
    <glyph glyph-name="umacron" unicode="&#x16b;" 
d="M71 172v215q0 13 13 13h18q13 0 13 -13v-215q0 -69 30.5 -104.5t88.5 -35.5q37 0 70 18t45 31t17 21v285q0 13 13 13h18q13 0 13 -13v-374q0 -13 -13 -13h-12q-10 0 -12 12l-4 39q-8 -11 -22.5 -23t-47 -25t-68.5 -13q-160 0 -160 182zM106 595q-13 0 -13 12v13
q0 13 13 13h272q13 0 13 -13v-13q0 -12 -13 -12h-272z" />
    <glyph glyph-name="Ubreve" unicode="&#x16c;" horiz-adv-x="720" 
d="M98 255v432q0 13 13 13h21q13 0 13 -13v-427q0 -99 58 -161.5t156 -62.5q99 0 157.5 62.5t58.5 160.5v428q0 13 14 13h20q13 0 13 -13v-432q0 -116 -72.5 -190.5t-190.5 -74.5q-117 0 -189 74.5t-72 190.5zM369 775q-51 0 -87.5 32t-43.5 79q-2 14 10 14h13q8 0 12 -12
q9 -34 34.5 -56t61.5 -22q34 0 60.5 22.5t34.5 55.5q3 12 12 12h14q12 0 10 -14q-8 -48 -44.5 -79.5t-86.5 -31.5z" />
    <glyph glyph-name="ubreve" unicode="&#x16d;" 
d="M71 172v215q0 13 13 13h18q13 0 13 -13v-215q0 -69 30.5 -104.5t88.5 -35.5q37 0 70 18t45 31t17 21v285q0 13 13 13h18q13 0 13 -13v-374q0 -13 -13 -13h-12q-10 0 -12 12l-4 39q-8 -11 -22.5 -23t-47 -25t-68.5 -13q-160 0 -160 182zM246 538q-50 0 -86.5 31.5
t-44.5 78.5q-2 14 10 14h13q8 0 12 -11q8 -35 34 -57t62 -22q34 0 60.5 22.5t34.5 56.5q3 11 12 11h14q12 0 10 -14q-8 -47 -44.5 -78.5t-86.5 -31.5z" />
    <glyph glyph-name="Uring" unicode="&#x16e;" horiz-adv-x="720" 
d="M98 255v432q0 13 13 13h21q13 0 13 -13v-427q0 -99 58 -161.5t156 -62.5q99 0 157.5 62.5t58.5 160.5v428q0 13 14 13h20q13 0 13 -13v-432q0 -116 -72.5 -190.5t-190.5 -74.5q-117 0 -189 74.5t-72 190.5zM369 754q-45 0 -75.5 30.5t-30.5 75.5t30.5 76t75.5 31
q44 0 75.5 -31t31.5 -76t-31 -75.5t-76 -30.5zM369 786q30 0 52 22t22 52t-22 52t-52 22t-52 -22t-22 -52t22 -52t52 -22z" />
    <glyph glyph-name="uring" unicode="&#x16f;" 
d="M71 172v215q0 13 13 13h18q13 0 13 -13v-215q0 -69 30.5 -104.5t88.5 -35.5q37 0 70 18t45 31t17 21v285q0 13 13 13h18q13 0 13 -13v-374q0 -13 -13 -13h-12q-10 0 -12 12l-4 39q-8 -11 -22.5 -23t-47 -25t-68.5 -13q-160 0 -160 182zM242 497q-45 0 -76 30.5t-31 75.5
t31 76t76 31q44 0 75 -31t31 -76t-31 -75.5t-75 -30.5zM242 529q29 0 51 22t22 52t-22 52t-51 22q-30 0 -52.5 -22t-22.5 -52t22.5 -52t52.5 -22z" />
    <glyph glyph-name="Uhungarumlaut" unicode="&#x170;" horiz-adv-x="720" 
d="M98 255v432q0 13 13 13h21q13 0 13 -13v-427q0 -99 58 -161.5t156 -62.5q99 0 157.5 62.5t58.5 160.5v428q0 13 14 13h20q13 0 13 -13v-432q0 -116 -72.5 -190.5t-190.5 -74.5q-117 0 -189 74.5t-72 190.5zM443 766q-12 0 -7 12l79 159q5 11 14 11h22q8 0 11 -5t-1 -12
l-93 -157q-4 -8 -13 -8h-12zM277 766q-12 0 -7 12l79 159q5 11 14 11h22q8 0 11 -5t-1 -12l-93 -157q-4 -8 -13 -8h-12z" />
    <glyph glyph-name="uhungarumlaut" unicode="&#x171;" 
d="M71 172v215q0 13 13 13h18q13 0 13 -13v-215q0 -69 30.5 -104.5t88.5 -35.5q37 0 70 18t45 31t17 21v285q0 13 13 13h18q13 0 13 -13v-374q0 -13 -13 -13h-12q-10 0 -12 12l-4 39q-8 -11 -22.5 -23t-47 -25t-68.5 -13q-160 0 -160 182zM327 518q-12 0 -7 12l79 159
q5 11 14 11h22q8 0 11 -5t-1 -12l-93 -157q-4 -8 -13 -8h-12zM161 518q-12 0 -7 12l79 159q5 11 14 11h22q8 0 11 -5t-1 -12l-93 -157q-4 -8 -13 -8h-12z" />
    <glyph glyph-name="Uogonek" unicode="&#x172;" horiz-adv-x="724" 
d="M100 255v432q0 13 13 13h21q13 0 13 -13v-427q0 -99 58 -161.5t156 -62.5q99 0 157.5 62.5t58.5 160.5v428q0 13 14 13h20q13 0 13 -13v-432q0 -112 -67.5 -185.5t-178.5 -78.5q-61 -45 -61 -110q0 -32 21.5 -49.5t52.5 -17.5q29 0 62 15q11 6 13 -8l1 -10q1 -10 -8 -16
q-29 -17 -73 -17q-46 0 -77 24.5t-31 73.5q0 67 63 115q-109 7 -175 80t-66 184z" />
    <glyph glyph-name="uogonek" unicode="&#x173;" horiz-adv-x="485" 
d="M70 172v215q0 13 13 13h18q13 0 13 -13v-215q0 -69 30.5 -104.5t88.5 -35.5q37 0 70 18t45 31t17 21v285q0 13 13 13h18q13 0 13 -13v-374q0 -13 -13 -13h-5q-66 -47 -66 -113q0 -32 21.5 -49.5t52.5 -17.5q29 0 62 15q11 6 13 -8l1 -10q1 -10 -8 -16q-29 -17 -73 -17
q-46 0 -77 24.5t-31 73.5q0 28 11.5 53t28 41t28 24.5t18.5 11.5l-4 39q-8 -11 -22.5 -23t-47 -25t-68.5 -13q-160 0 -160 182z" />
    <glyph glyph-name="Wcircumflex" unicode="&#x174;" horiz-adv-x="896" 
d="M237 -3l-198 690q-3 13 11 13h24q10 0 12 -11l168 -586h2l176 598q3 9 15 9h2q12 0 15 -9l177 -598h2l167 586q2 11 12 11h24q14 0 11 -13l-198 -690q-2 -7 -9 -7h-11q-7 0 -10 7l-180 609h-2l-180 -609q-3 -7 -10 -7h-11q-7 0 -9 7zM336 768q-9 -6 -15 2l-9 11
q-5 7 4 14l121 98q5 5 10 5h3q5 0 10 -5l121 -98q9 -7 4 -14l-9 -11q-6 -8 -15 -2l-113 84z" />
    <glyph glyph-name="wcircumflex" unicode="&#x175;" horiz-adv-x="606" 
d="M154 -1l-120 385q-5 16 6 16h22q10 0 13 -9l94 -315h1l119 325q3 9 12 9h4q9 0 12 -9l119 -325h1l94 315q3 9 13 9h22q11 0 6 -16l-120 -385q-3 -9 -12 -9h-4q-9 0 -12 9l-121 337h-1l-120 -337q-3 -9 -12 -9h-4q-9 0 -12 9zM191 550q-9 -6 -15 2l-9 11q-5 7 4 14l121 98
q5 5 10 5h3q5 0 10 -5l121 -98q9 -7 4 -14l-9 -11q-6 -8 -15 -2l-113 84z" />
    <glyph glyph-name="Ycircumflex" unicode="&#x176;" horiz-adv-x="560" 
d="M253 13v327l-255 345q-4 6 -2 10.5t10 4.5h30q8 0 13 -6l228 -311l232 311q5 6 13 6h30q8 0 10 -4.5t-2 -10.5l-260 -344v-328q0 -13 -13 -13h-6h-6.5h-6.5t-6 1t-4.5 2.5t-3.5 4t-1 5.5zM166 768q-9 -6 -15 2l-9 11q-5 7 4 14l121 98q5 5 10 5h3q5 0 10 -5l121 -98
q9 -7 4 -14l-9 -11q-6 -8 -15 -2l-113 84z" />
    <glyph glyph-name="ycircumflex" unicode="&#x177;" horiz-adv-x="443" 
d="M204 4l-189 380q-8 16 6 16h22q9 0 13 -9l171 -338h2l156 338q5 9 13 9h22q14 0 6 -16l-314 -676q-3 -8 -13 -8h-23q-13 0 -7 14zM117 550q-9 -6 -15 2l-9 11q-5 7 4 14l121 98q5 5 10 5h3q5 0 10 -5l121 -98q9 -7 4 -14l-9 -11q-6 -8 -15 -2l-113 84z" />
    <glyph glyph-name="Ydieresis" unicode="&#x178;" horiz-adv-x="560" 
d="M253 13v327l-255 345q-4 6 -2 10.5t10 4.5h30q8 0 13 -6l228 -311l232 311q5 6 13 6h30q8 0 10 -4.5t-2 -10.5l-260 -344v-328q0 -13 -13 -13h-6h-6.5h-6.5t-6 1t-4.5 2.5t-3.5 4t-1 5.5zM382 801q-14 0 -24 9.5t-10 23.5q0 15 10 25t24 10q15 0 25 -10t10 -25
q0 -14 -10 -23.5t-25 -9.5zM173 801q-14 0 -24 9.5t-10 23.5q0 15 10 25t24 10q15 0 25 -10t10 -25q0 -14 -10 -23.5t-25 -9.5z" />
    <glyph glyph-name="Zacute" unicode="&#x179;" horiz-adv-x="533" 
d="M30 12v18l406 624v2h-362q-13 0 -13 15v16q0 13 13 13h412q13 0 13 -13v-16l-407 -626v-1h373q13 0 13 -13v-18q0 -13 -13 -13h-421q-14 0 -14 12zM215 782q-12 -5 -16 3l-5 10q-3 9 6 14l164 90q12 6 17 -3l10 -20q5 -10 -4 -15z" />
    <glyph glyph-name="zacute" unicode="&#x17a;" horiz-adv-x="371" 
d="M34 11v11l235 335v3h-204q-12 0 -12 13v14q0 13 12 13h259q8 0 11.5 -6t-0.5 -13l-234 -338v-3h207q13 0 13 -13v-14q0 -13 -13 -13h-262q-12 0 -12 11zM118 558q-10 -4 -14 4l-6 13q-4 8 6 14l165 87q11 7 17 -3l10 -20q5 -11 -9 -18z" />
    <glyph glyph-name="Zdotaccent" unicode="&#x17b;" horiz-adv-x="533" 
d="M30 12v18l406 624v2h-362q-13 0 -13 15v16q0 13 13 13h412q13 0 13 -13v-16l-407 -626v-1h373q13 0 13 -13v-18q0 -13 -13 -13h-421q-14 0 -14 12zM283 810q-16 0 -27 11t-11 27t11 27t27 11t27 -11t11 -27t-11 -27t-27 -11z" />
    <glyph glyph-name="zdotaccent" unicode="&#x17c;" horiz-adv-x="371" 
d="M34 11v11l235 335v3h-204q-12 0 -12 13v14q0 13 12 13h259q8 0 11.5 -6t-0.5 -13l-234 -338v-3h207q13 0 13 -13v-14q0 -13 -13 -13h-262q-12 0 -12 11zM193 582q-16 0 -27 11.5t-11 26.5q0 16 11 27t27 11t27 -11t11 -27q0 -15 -11 -26.5t-27 -11.5z" />
    <glyph glyph-name="Zcaron" unicode="&#x17d;" horiz-adv-x="533" 
d="M30 12v18l406 624v2h-362q-13 0 -13 15v16q0 13 13 13h412q13 0 13 -13v-16l-407 -626v-1h373q13 0 13 -13v-18q0 -13 -13 -13h-421q-14 0 -14 12zM282 763q-5 0 -10 5l-121 98q-9 7 -4 14l9 11q6 8 15 2l113 -84l112 84q9 6 15 -2l9 -11q5 -7 -4 -14l-121 -98
q-5 -5 -10 -5h-3z" />
    <glyph glyph-name="zcaron" unicode="&#x17e;" horiz-adv-x="371" 
d="M34 11v11l235 335v3h-204q-12 0 -12 13v14q0 13 12 13h259q8 0 11.5 -6t-0.5 -13l-234 -338v-3h207q13 0 13 -13v-14q0 -13 -13 -13h-262q-12 0 -12 11zM195 545q-5 0 -10 5l-121 98q-9 7 -4 14l9 11q6 8 15 2l113 -84l112 84q9 6 15 -2l9 -11q5 -7 -4 -14l-121 -98
q-5 -5 -10 -5h-3z" />
    <glyph glyph-name="florin" unicode="&#x192;" horiz-adv-x="336" 
d="M118 -135v496h-87q-13 0 -13 13v13q0 13 13 13h87v137q0 85 41.5 129t109.5 44q36 0 68 -13.5t44 -29.5q7 -9 2 -16l-10 -14q-7 -11 -17 -1q-36 34 -87 34q-49 0 -78 -33t-29 -100v-137h148q13 0 13 -12v-15q0 -12 -13 -12h-148v-496q0 -85 -41.5 -129t-109.5 -44
q-36 0 -68 13.5t-44 29.5q-7 9 -2 16l10 14q7 11 17 1q36 -34 87 -34q49 0 78 33t29 100z" />
    <glyph glyph-name="Aringacute" unicode="&#x1fa;" horiz-adv-x="653" 
d="M234 911l-5 10q-3 9 6 14l164 90q12 6 17 -3l10 -20q5 -10 -4 -15l-172 -79q-12 -5 -16 3zM13 0q-11 0 -7 12l300 679q-36 8 -58.5 36.5t-22.5 67.5q0 45 30.5 76t75.5 31q44 0 75.5 -31t31.5 -76q0 -40 -25 -69t-64 -36l298 -678q4 -12 -9 -12h-26q-10 0 -14 9l-81 184
h-382l-80 -184q-5 -9 -14 -9h-28zM331 721q30 0 52 22t22 52t-22 52t-52 22t-52 -22t-22 -52t22 -52t52 -22zM153 232h347l-171 403h-2z" />
    <glyph glyph-name="aringacute" unicode="&#x1fb;" horiz-adv-x="427" 
d="M44 123q0 59 45.5 97t122.5 38q52 0 101 -18q0 73 -16.5 102.5t-71.5 29.5q-19 0 -37 -2.5t-31.5 -6.5t-24 -7.5t-18.5 -7t-9 -3.5q-11 -4 -15 8l-5 12q-4 11 6 15q5 3 18 9t47.5 13.5t71.5 7.5q36 0 60 -9t37.5 -22.5t20 -39t8 -46.5t1.5 -58v-222q0 -13 -13 -13h-12
q-9 0 -12 11l-4 36q-62 -57 -139 -57q-57 0 -94 36.5t-37 96.5zM85 124q0 -43 26.5 -69t68.5 -26t79 20t54 42v110q-46 21 -101 21q-57 0 -92 -27t-35 -71zM212 429q-45 0 -76 30.5t-31 75.5t31 76t76 31q44 0 75 -31t31 -76t-31 -75.5t-75 -30.5zM212 461q29 0 51 22t22 52
t-22 52t-51 22q-30 0 -52.5 -22t-22.5 -52t22.5 -52t52.5 -22zM133 642q-10 -4 -14 4l-6 13q-4 8 6 14l165 87q11 7 17 -3l10 -20q5 -11 -9 -18z" />
    <glyph glyph-name="AEacute" unicode="&#x1fc;" horiz-adv-x="915" 
d="M-4 0q-15 0 -4 17l425 666q10 17 25 17h393q13 0 13 -13v-16q0 -13 -13 -13h-369v-277h321q13 0 13 -13v-17q0 -13 -13 -13h-321v-296h369q13 0 13 -14v-15q0 -13 -13 -13h-400q-13 0 -13 13v180h-266l-116 -184q-6 -9 -16 -9h-28zM179 232h243v382zM537 783
q-12 -5 -16 3l-5 10q-3 9 6 14l164 90q12 6 17 -3l10 -20q5 -10 -4 -15z" />
    <glyph glyph-name="aeacute" unicode="&#x1fd;" horiz-adv-x="705" 
d="M45 125q0 59 44 95.5t118 36.5q70 0 106 -13q0 73 -15.5 100t-69.5 27q-19 0 -38 -2.5t-33.5 -6.5t-25 -7.5t-19 -7t-9.5 -3.5q-12 -3 -15 8l-4 16q-2 9 9 13q57 29 137 29q92 0 115 -59q54 59 137 59q79 0 130 -51.5t51 -131.5q0 -39 -15 -39h-296v-84q21 -34 56 -54
t77 -20q63 0 118 37q12 8 18 0l10 -14q5 -7 -4 -16q-17 -17 -59.5 -32t-85.5 -15q-91 0 -146 68q-23 -27 -66 -47.5t-90 -20.5q-59 0 -97 37t-38 98zM352 224h267q0 62 -36 104t-101 42q-87 0 -130 -70v-76zM85 124q0 -45 29 -70t72 -25q40 0 76 18t52 39v120
q-52 15 -102 15q-56 0 -91.5 -26.5t-35.5 -70.5zM304 558q-10 -4 -14 4l-6 13q-4 8 6 14l165 87q11 7 17 -3l10 -20q5 -11 -9 -18z" />
    <glyph glyph-name="Oslashacute" unicode="&#x1fe;" horiz-adv-x="833" 
d="M84 28q-9 9 0 18l63 62q-90 103 -90 241q0 150 105 255.5t255 105.5q144 0 247 -98l66 64q8 9 17 0l4 -4q9 -9 0 -18l-65 -64q92 -105 92 -241q0 -150 -105.5 -254.5t-255.5 -104.5q-147 0 -248 96l-64 -62q-8 -9 -17 0zM179 140l454 441q-91 85 -216 85
q-131 0 -223.5 -93t-92.5 -224q0 -121 78 -209zM201 118q89 -84 216 -84q131 0 224 92t93 223q0 120 -80 210zM348 782q-12 -5 -16 3l-5 10q-3 9 6 14l164 90q12 6 17 -3l10 -20q5 -10 -4 -15z" />
    <glyph glyph-name="oslashacute" unicode="&#x1ff;" horiz-adv-x="493" 
d="M169 558q-10 -4 -14 4l-6 13q-4 8 6 14l165 87q11 7 17 -3l10 -20q5 -11 -9 -18zM69 36q-10 9 -1 18l18 18q-40 58 -40 128q0 86 58.5 148t142.5 62q80 0 138 -58l23 22q9 9 18 0l4 -4q11 -9 0 -18l-24 -24q41 -57 41 -128q0 -88 -58 -149t-142 -61q-82 0 -140 58
l-17 -17q-8 -9 -18 1zM118 102l236 220q-44 46 -107 46q-66 0 -111.5 -49t-45.5 -119q0 -55 28 -98zM138 78q45 -47 109 -47q66 0 111.5 49t45.5 120q0 54 -30 98z" />
    <glyph glyph-name="Scommaaccent" unicode="&#x218;" horiz-adv-x="543" 
d="M67 72q-11 9 -3 21l9 12q12 13 22 4q86 -77 185 -77q68 0 118 39.5t50 94.5q0 62 -47 99t-147 71q-100 35 -146.5 76t-46.5 121q0 30 12.5 59.5t36.5 56.5t67.5 44t99.5 17q44 0 87 -13t64 -25l21 -13q12 -9 4 -21q-5 -6 -8 -13q-9 -13 -22 -5q-71 47 -147 47
q-84 0 -126.5 -41t-42.5 -92q0 -59 41 -93t125 -62q115 -40 169.5 -85t54.5 -126q0 -74 -65 -126t-153 -52q-41 0 -80 10.5t-67 27t-42 26t-23 18.5zM239 -149q0 18 11.5 28.5t30.5 10.5q24 0 40 -23.5t16 -70.5q0 -52 -24.5 -89t-47.5 -50q-12 -7 -17 0l-8 10q-7 8 4 16
q51 41 56 95q1 22 -5 38q-8 -5 -16 -5q-19 0 -29.5 11.5t-10.5 28.5z" />
    <glyph glyph-name="scommaaccent" unicode="&#x219;" horiz-adv-x="370" 
d="M57 35q-9 6 -4 14l10 16q7 11 18 1q49 -39 107 -39q42 0 69 20.5t27 50.5q0 31 -26 49.5t-86 40.5q-60 21 -91.5 48t-31.5 70q0 39 34 71.5t97 32.5q64 0 113 -32q11 -7 4 -19l-6 -11q-7 -12 -19 -5q-42 28 -92 28q-43 0 -64.5 -20t-21.5 -44q0 -28 23 -45t72 -35
q37 -14 55.5 -22t42 -23.5t33.5 -35t10 -45.5q0 -45 -41.5 -78t-100.5 -33q-73 0 -131 45zM146 -140q0 18 11.5 28.5t30.5 10.5q24 0 40 -23.5t16 -70.5q0 -52 -24.5 -89t-47.5 -50q-12 -7 -17 0l-8 10q-7 8 4 16q51 41 56 95q1 22 -5 38q-8 -5 -16 -5q-19 0 -29.5 11.5
t-10.5 28.5z" />
    <glyph glyph-name="uni021A" unicode="&#x21a;" horiz-adv-x="470" 
d="M211 13v644h-191q-13 0 -13 15v15q0 13 13 13h430q13 0 13 -13v-17q0 -13 -13 -13h-192v-644q0 -13 -16 -13h-18q-13 0 -13 13zM195 -141q0 18 11.5 28.5t30.5 10.5q24 0 40 -23.5t16 -70.5q0 -52 -24.5 -89t-47.5 -50q-12 -7 -17 0l-8 10q-7 8 4 16q51 41 56 95
q1 22 -5 38q-8 -5 -16 -5q-19 0 -29.5 11.5t-10.5 28.5z" />
    <glyph glyph-name="uni021B" unicode="&#x21b;" horiz-adv-x="330" 
d="M93 103v258h-47q-12 0 -12 13v16q0 10 12 10h47v109q0 13 13 13l17 1q13 0 13 -13v-110h139q13 0 13 -13v-13q0 -13 -13 -13h-139v-255q0 -40 9.5 -56.5t42.5 -16.5q47 0 91 27q10 6 16 -4l7 -12q6 -11 -3 -17q-46 -37 -116 -37q-57 0 -73.5 28t-16.5 85zM136 -141
q0 18 11.5 28.5t30.5 10.5q24 0 40 -23.5t16 -70.5q0 -52 -24.5 -89t-47.5 -50q-12 -7 -17 0l-8 10q-7 8 4 16q51 41 56 95q1 22 -5 38q-8 -5 -16 -5q-19 0 -29.5 11.5t-10.5 28.5z" />
    <glyph glyph-name="dotlessj" unicode="&#x237;" horiz-adv-x="195" 
d="M76 -137v524q0 13 13 13h17q13 0 13 -13v-524q0 -86 -39 -129.5t-107 -43.5q-35 0 -65.5 13.5t-46.5 29.5q-7 7 -2 14l10 16q7 10 17 0q43 -33 87 -33q103 0 103 133z" />
    <glyph glyph-name="circumflex" unicode="&#x2c6;" horiz-adv-x="373" 
d="M72 550q-9 -6 -15 2l-9 11q-5 7 4 14l121 98q5 5 10 5h3q5 0 10 -5l121 -98q9 -7 4 -14l-9 -11q-6 -8 -15 -2l-113 84z" />
    <glyph glyph-name="caron" unicode="&#x2c7;" horiz-adv-x="373" 
d="M184 545q-5 0 -10 5l-121 98q-9 7 -4 14l9 11q6 8 15 2l113 -84l112 84q9 6 15 -2l9 -11q5 -7 -4 -14l-121 -98q-5 -5 -10 -5h-3z" />
    <glyph glyph-name="uni02C9" unicode="&#x2c9;" horiz-adv-x="414" 
d="M71 595q-13 0 -13 12v13q0 13 13 13h272q13 0 13 -13v-13q0 -12 -13 -12h-272z" />
    <glyph glyph-name="breve" unicode="&#x2d8;" horiz-adv-x="346" 
d="M173 538q-50 0 -86.5 31.5t-44.5 78.5q-2 14 10 14h13q8 0 12 -11q8 -35 34 -57t62 -22q34 0 60.5 22.5t34.5 56.5q3 11 12 11h14q12 0 10 -14q-8 -47 -44.5 -78.5t-86.5 -31.5z" />
    <glyph glyph-name="dotaccent" unicode="&#x2d9;" horiz-adv-x="219" 
d="M108 582q-16 0 -27 11.5t-11 26.5q0 16 11 27t27 11t27 -11t11 -27q0 -15 -11 -26.5t-27 -11.5z" />
    <glyph glyph-name="ring" unicode="&#x2da;" horiz-adv-x="290" 
d="M145 497q-45 0 -76 30.5t-31 75.5t31 76t76 31q44 0 75 -31t31 -76t-31 -75.5t-75 -30.5zM145 529q29 0 51 22t22 52t-22 52t-51 22q-30 0 -52.5 -22t-22.5 -52t22.5 -52t52.5 -22z" />
    <glyph glyph-name="ogonek" unicode="&#x2db;" horiz-adv-x="276" 
d="M38 -118q0 23 8.5 45t20.5 36.5t25 26t21.5 16.5t11.5 6l30 -4q-3 -2 -8.5 -5.5t-19 -15t-23.5 -24.5t-18.5 -33.5t-8.5 -42.5q0 -32 21.5 -49.5t52.5 -17.5q29 0 62 15q11 6 13 -8l1 -10q1 -10 -8 -16q-29 -17 -73 -17q-46 0 -77 24.5t-31 73.5z" />
    <glyph glyph-name="tilde" unicode="&#x2dc;" horiz-adv-x="380" 
d="M53 579l-12 5q-10 3 -6 14q24 61 57 78q17 8 36 8q24 0 41 -14t24.5 -31.5t19.5 -31.5t28 -14q37 0 57 59q4 13 15 7l11 -4q8 -4 6 -13q-2 -8 -6 -17.5t-14 -27.5t-29 -29.5t-43 -11.5t-40.5 14.5t-24.5 31.5t-20.5 31.5t-27.5 14.5q-37 0 -57 -62q-3 -12 -15 -7z" />
    <glyph glyph-name="hungarumlaut" unicode="&#x2dd;" horiz-adv-x="392" 
d="M231 518q-12 0 -7 12l79 159q5 11 14 11h22q8 0 11 -5t-1 -12l-93 -157q-4 -8 -13 -8h-12zM65 518q-12 0 -7 12l79 159q5 11 14 11h22q8 0 11 -5t-1 -12l-93 -157q-4 -8 -13 -8h-12z" />
    <glyph glyph-name="uni0394" unicode="&#x394;" horiz-adv-x="677" 
d="M44 0q-32 0 -14 37l296 671q4 7 12 7h3q9 0 13 -7l295 -673q16 -35 -18 -35h-587zM82 42h511l-252 593h-2z" />
    <glyph glyph-name="uni03A9" unicode="&#x3a9;" horiz-adv-x="780" 
d="M58 13v15q0 13 13 13h138q-81 47 -130.5 128.5t-49.5 179.5q0 150 105 255.5t255 105.5t255 -105.5t105 -255.5q0 -98 -49.5 -179.5t-130.5 -128.5h138q13 0 13 -13v-15q0 -13 -13 -13h-237q-12 0 -12 13v15q0 10 12 13q103 26 169 111.5t66 196.5q0 131 -92.5 224
t-223.5 93t-223.5 -93t-92.5 -224q0 -111 66 -196.5t169 -111.5q12 -3 12 -13v-15q0 -13 -12 -13h-237q-13 0 -13 13z" />
    <glyph glyph-name="uni03BC" unicode="&#x3bc;" horiz-adv-x="505" 
d="M122 42v-329q0 -13 -14 -13h-17q-13 0 -13 13v674q0 13 13 13h18q13 0 13 -13v-215q0 -69 30.5 -104.5t88.5 -35.5q37 0 70 18t45 31t17 21v285q0 13 13 13h18q13 0 13 -13v-374q0 -13 -13 -13h-12q-10 0 -12 12l-4 39q-8 -11 -22.5 -23t-47 -25t-68.5 -13q-38 0 -70 15
t-46 37z" />
    <glyph glyph-name="pi" unicode="&#x3c0;" horiz-adv-x="603" 
d="M146 13v348h-119q-13 0 -13 13v13q0 13 13 13h556q13 0 13 -12v-15q0 -12 -13 -12h-119v-348q0 -13 -14 -13h-16q-13 0 -13 13v348h-232v-348q0 -13 -14 -13h-16q-13 0 -13 13z" />
    <glyph glyph-name="Wgrave" unicode="&#x1e80;" horiz-adv-x="896" 
d="M237 -3l-198 690q-3 13 11 13h24q10 0 12 -11l168 -586h2l176 598q3 9 15 9h2q12 0 15 -9l177 -598h2l167 586q2 11 12 11h24q14 0 11 -13l-198 -690q-2 -7 -9 -7h-11q-7 0 -10 7l-180 609h-2l-180 -609q-3 -7 -10 -7h-11q-7 0 -9 7zM526 782l-172 79q-9 5 -4 15l10 20
q5 9 17 3l164 -90q9 -5 6 -14l-5 -10q-4 -8 -16 -3z" />
    <glyph glyph-name="wgrave" unicode="&#x1e81;" horiz-adv-x="606" 
d="M154 -1l-120 385q-5 16 6 16h22q10 0 13 -9l94 -315h1l119 325q3 9 12 9h4q9 0 12 -9l119 -325h1l94 315q3 9 13 9h22q11 0 6 -16l-120 -385q-3 -9 -12 -9h-4q-9 0 -12 9l-121 337h-1l-120 -337q-3 -9 -12 -9h-4q-9 0 -12 9zM381 559l-172 79q-9 5 -4 15l10 20q5 9 17 3
l164 -90q9 -5 6 -14l-5 -10q-4 -8 -16 -3z" />
    <glyph glyph-name="Wacute" unicode="&#x1e82;" horiz-adv-x="896" 
d="M237 -3l-198 690q-3 13 11 13h24q10 0 12 -11l168 -586h2l176 598q3 9 15 9h2q12 0 15 -9l177 -598h2l167 586q2 11 12 11h24q14 0 11 -13l-198 -690q-2 -7 -9 -7h-11q-7 0 -10 7l-180 609h-2l-180 -609q-3 -7 -10 -7h-11q-7 0 -9 7zM370 782q-12 -5 -16 3l-5 10
q-3 9 6 14l164 90q12 6 17 -3l10 -20q5 -10 -4 -15z" />
    <glyph glyph-name="wacute" unicode="&#x1e83;" horiz-adv-x="606" 
d="M154 -1l-120 385q-5 16 6 16h22q10 0 13 -9l94 -315h1l119 325q3 9 12 9h4q9 0 12 -9l119 -325h1l94 315q3 9 13 9h22q11 0 6 -16l-120 -385q-3 -9 -12 -9h-4q-9 0 -12 9l-121 337h-1l-120 -337q-3 -9 -12 -9h-4q-9 0 -12 9zM224 558q-10 -4 -14 4l-6 13q-4 8 6 14
l165 87q11 7 17 -3l10 -20q5 -11 -9 -18z" />
    <glyph glyph-name="Wdieresis" unicode="&#x1e84;" horiz-adv-x="896" 
d="M237 -3l-198 690q-3 13 11 13h24q10 0 12 -11l168 -586h2l176 598q3 9 15 9h2q12 0 15 -9l177 -598h2l167 586q2 11 12 11h24q14 0 11 -13l-198 -690q-2 -7 -9 -7h-11q-7 0 -10 7l-180 609h-2l-180 -609q-3 -7 -10 -7h-11q-7 0 -9 7zM552 801q-14 0 -24 9.5t-10 23.5
q0 15 10 25t24 10q15 0 25 -10t10 -25q0 -14 -10 -23.5t-25 -9.5zM343 801q-14 0 -24 9.5t-10 23.5q0 15 10 25t24 10q15 0 25 -10t10 -25q0 -14 -10 -23.5t-25 -9.5z" />
    <glyph glyph-name="wdieresis" unicode="&#x1e85;" horiz-adv-x="606" 
d="M154 -1l-120 385q-5 16 6 16h22q10 0 13 -9l94 -315h1l119 325q3 9 12 9h4q9 0 12 -9l119 -325h1l94 315q3 9 13 9h22q11 0 6 -16l-120 -385q-3 -9 -12 -9h-4q-9 0 -12 9l-121 337h-1l-120 -337q-3 -9 -12 -9h-4q-9 0 -12 9zM398 596q-14 0 -23.5 9.5t-9.5 23.5
q0 15 9.5 25t23.5 10q15 0 25 -10t10 -25q0 -14 -10 -23.5t-25 -9.5zM207 596q-14 0 -24 9.5t-10 23.5q0 15 10 25t24 10q15 0 24.5 -10t9.5 -25q0 -14 -9.5 -23.5t-24.5 -9.5z" />
    <glyph glyph-name="Ygrave" unicode="&#x1ef2;" horiz-adv-x="560" 
d="M253 13v327l-255 345q-4 6 -2 10.5t10 4.5h30q8 0 13 -6l228 -311l232 311q5 6 13 6h30q8 0 10 -4.5t-2 -10.5l-260 -344v-328q0 -13 -13 -13h-6h-6.5h-6.5t-6 1t-4.5 2.5t-3.5 4t-1 5.5zM355 782l-172 79q-9 5 -4 15l10 20q5 9 17 3l164 -90q9 -5 6 -14l-5 -10
q-4 -8 -16 -3z" />
    <glyph glyph-name="ygrave" unicode="&#x1ef3;" horiz-adv-x="443" 
d="M204 4l-189 380q-8 16 6 16h22q9 0 13 -9l171 -338h2l156 338q5 9 13 9h22q14 0 6 -16l-314 -676q-3 -8 -13 -8h-23q-13 0 -7 14zM306 559l-172 79q-9 5 -4 15l10 20q5 9 17 3l164 -90q9 -5 6 -14l-5 -10q-4 -8 -16 -3z" />
    <glyph glyph-name="endash" unicode="&#x2013;" horiz-adv-x="644" 
d="M130 233q-13 0 -13 12v8q0 13 13 13h384q13 0 13 -13v-8q0 -12 -13 -12h-384z" />
    <glyph glyph-name="emdash" unicode="&#x2014;" horiz-adv-x="862" 
d="M130 233q-13 0 -13 12v8q0 13 13 13h602q13 0 13 -13v-8q0 -12 -13 -12h-602z" />
    <glyph glyph-name="quoteleft" unicode="&#x2018;" horiz-adv-x="189" 
d="M99 472q-24 0 -40 23.5t-16 70.5q0 52 24.5 89t47.5 50q12 7 17 0l8 -10q7 -8 -4 -16q-51 -41 -56 -95q-1 -22 5 -38q8 5 16 5q19 0 29.5 -11.5t10.5 -28.5q0 -18 -11.5 -28.5t-30.5 -10.5z" />
    <glyph glyph-name="quoteright" unicode="&#x2019;" horiz-adv-x="189" 
d="M60 477l-8 10q-7 8 4 16q51 41 56 95q1 22 -5 38q-8 -5 -16 -5q-19 0 -29.5 11.5t-10.5 28.5q0 18 11.5 28.5t30.5 10.5q24 0 40 -23.5t16 -70.5q0 -52 -24.5 -89t-47.5 -50q-12 -7 -17 0z" />
    <glyph glyph-name="quotesinglbase" unicode="&#x201a;" horiz-adv-x="229" 
d="M70 29q0 18 11.5 28.5t30.5 10.5q24 0 40 -23.5t16 -70.5q0 -52 -24.5 -89t-47.5 -50q-12 -7 -17 0l-8 10q-7 8 4 16q51 41 56 95q1 22 -5 38q-8 -5 -16 -5q-19 0 -29.5 11.5t-10.5 28.5z" />
    <glyph glyph-name="quotedblleft" unicode="&#x201c;" horiz-adv-x="369" 
d="M279 473q-24 0 -40 23.5t-16 70.5q0 52 24.5 89t47.5 50q12 7 17 0l8 -10q7 -8 -4 -16q-51 -41 -56 -95q-1 -22 5 -38q8 5 16 5q19 0 29.5 -11.5t10.5 -28.5q0 -18 -11.5 -28.5t-30.5 -10.5zM100 473q-24 0 -40 23.5t-16 70.5q0 52 24.5 89t47.5 50q12 7 17 0l8 -10
q7 -8 -4 -16q-51 -41 -56 -95q-1 -22 5 -38q8 5 16 5q19 0 29.5 -11.5t10.5 -28.5q0 -18 -11.5 -28.5t-30.5 -10.5z" />
    <glyph glyph-name="quotedblright" unicode="&#x201d;" horiz-adv-x="368" 
d="M239 477l-8 10q-7 8 4 16q51 41 56 95q1 22 -5 38q-8 -5 -16 -5q-19 0 -29.5 11.5t-10.5 28.5q0 18 11.5 28.5t30.5 10.5q24 0 40 -23.5t16 -70.5q0 -52 -24.5 -89t-47.5 -50q-12 -7 -17 0zM60 477l-8 10q-7 8 4 16q51 41 56 95q1 22 -5 38q-8 -5 -16 -5
q-19 0 -29.5 11.5t-10.5 28.5q0 18 11.5 28.5t30.5 10.5q24 0 40 -23.5t16 -70.5q0 -52 -24.5 -89t-47.5 -50q-12 -7 -17 0z" />
    <glyph glyph-name="quotedblbase" unicode="&#x201e;" horiz-adv-x="408" 
d="M249 29q0 18 11.5 28.5t30.5 10.5q24 0 40 -23.5t16 -70.5q0 -52 -24.5 -89t-47.5 -50q-12 -7 -17 0l-8 10q-7 8 4 16q51 41 56 95q1 22 -5 38q-8 -5 -16 -5q-19 0 -29.5 11.5t-10.5 28.5zM70 29q0 18 11.5 28.5t30.5 10.5q24 0 40 -23.5t16 -70.5q0 -52 -24.5 -89
t-47.5 -50q-12 -7 -17 0l-8 10q-7 8 4 16q51 41 56 95q1 22 -5 38q-8 -5 -16 -5q-19 0 -29.5 11.5t-10.5 28.5z" />
    <glyph glyph-name="dagger" unicode="&#x2020;" horiz-adv-x="570" 
d="M53 358q-13 0 -13 15v14q0 13 13 13h205v287q0 13 14 13h26q13 0 13 -13v-287h207q12 0 12 -13v-16q0 -13 -12 -13h-208l-9 -647q0 -11 -13 -11h-8q-13 0 -13 11l-8 647h-206z" />
    <glyph glyph-name="daggerdbl" unicode="&#x2021;" horiz-adv-x="570" 
d="M70 14v15q0 13 13 13h179l-4 340v18h-205q-13 0 -13 14v15q0 13 13 13h205v245q0 13 14 13h26q13 0 13 -13v-245h207q12 0 12 -15v-14q0 -13 -12 -13h-207l-5 -358h182q12 0 12 -13v-16q0 -13 -12 -13h-183l-4 -289q0 -11 -13 -11h-8q-13 0 -13 11l-4 289h-180
q-13 0 -13 14z" />
    <glyph glyph-name="bullet" unicode="&#x2022;" horiz-adv-x="354" 
d="M175 154q-29 0 -50 21t-21 50q0 31 21 52.5t50 21.5q31 0 52.5 -21.5t21.5 -52.5q0 -29 -21.5 -50t-52.5 -21z" />
    <glyph glyph-name="ellipsis" unicode="&#x2026;" horiz-adv-x="624" 
d="M465 31q0 17 11.5 28.5t28.5 11.5t28.5 -11.5t11.5 -28.5t-11.5 -29t-28.5 -12q-16 0 -28 12t-12 29zM270 31q0 17 12 28.5t28 11.5q17 0 28.5 -11.5t11.5 -28.5t-11.5 -29t-28.5 -12q-16 0 -28 12t-12 29zM78 31q0 16 12 28t29 12t28.5 -11.5t11.5 -28.5t-11.5 -29
t-28.5 -12t-29 12t-12 29z" />
    <glyph glyph-name="perthousand" unicode="&#x2030;" horiz-adv-x="1002" 
d="M188 434q-58 0 -98 40t-40 98t40 98t98 40q57 0 97.5 -40t40.5 -98t-40.5 -98t-97.5 -40zM127 17l380 678q3 5 12 5h18q7 0 9.5 -6t-1.5 -13l-381 -674q-4 -7 -12 -7h-18q-7 0 -9 5.5t2 11.5zM188 471q41 0 70.5 29.5t29.5 71.5q0 41 -29.5 70.5t-70.5 29.5
q-42 0 -71.5 -29.5t-29.5 -70.5q0 -42 29.5 -71.5t71.5 -29.5zM679 127q0 58 40.5 98.5t98.5 40.5q56 0 97 -41t41 -98t-41 -97.5t-97 -40.5q-58 0 -98.5 40.5t-40.5 97.5zM363 127q0 58 40 98.5t98 40.5q57 0 97.5 -40.5t40.5 -98.5q0 -57 -40.5 -97.5t-97.5 -40.5
q-58 0 -98 40.5t-40 97.5zM717 127q0 -42 29 -71t72 -29q41 0 70 29t29 71q0 41 -29 70.5t-70 29.5q-42 0 -71.5 -29.5t-29.5 -70.5zM400 127q0 -42 29.5 -71t71.5 -29q41 0 70.5 29t29.5 71q0 41 -29.5 70.5t-70.5 29.5q-42 0 -71.5 -29.5t-29.5 -70.5z" />
    <glyph glyph-name="guilsinglleft" unicode="&#x2039;" horiz-adv-x="245" 
d="M154 42l-108 157q-6 7 0 17l108 154q6 9 16 9h16q6 0 7.5 -5.5t-2.5 -12.5l-94 -153l94 -157q4 -7 2.5 -12.5t-7.5 -5.5h-16q-10 0 -16 9z" />
    <glyph glyph-name="guilsinglright" unicode="&#x203a;" horiz-adv-x="245" 
d="M59 33q-6 0 -7.5 5.5t2.5 12.5l94 157l-94 153q-4 7 -2.5 12.5t7.5 5.5h16q10 0 16 -9l108 -154q6 -10 0 -17l-108 -157q-6 -9 -16 -9h-16z" />
    <glyph glyph-name="fraction" unicode="&#x2044;" horiz-adv-x="144" 
d="M-92 5q-3 -5 -13 -5h-15q-15 0 -8 14l384 681q3 5 13 5h15q15 0 8 -14z" />
    <glyph glyph-name="zerosuperior" unicode="&#x2070;" horiz-adv-x="345" 
d="M172 494q-57 0 -89.5 42t-32.5 115q0 74 32 116.5t90 42.5t90.5 -42t32.5 -117q0 -73 -32.5 -115t-90.5 -42zM172 527q41 0 64 32.5t23 91.5t-23 93t-64 34q-40 0 -63 -34t-23 -93q0 -58 22.5 -91t63.5 -33z" />
    <glyph glyph-name="foursuperior" unicode="&#x2074;" horiz-adv-x="342" 
d="M235 504q-10 0 -10 9v60h-167q-9 0 -9 9v9l189 209h14q10 0 10 -9v-185h39q9 0 9 -8v-16q0 -8 -9 -8h-39v-61q0 -9 -10 -9h-17zM106 607h119v130z" />
    <glyph glyph-name="fivesuperior" unicode="&#x2075;" horiz-adv-x="348" 
d="M154 494q-57 0 -98 38q-7 7 -1 15l9 11q6 7 13 0q33 -33 78 -33q35 0 58 21.5t23 49.5q0 27 -20 44.5t-53 17.5h-78q-15 0 -15 15v118q0 9 9 9h148q9 0 9 -9v-17q0 -8 -9 -8h-124v-75h59q54 0 82.5 -24t28.5 -69q0 -43 -34 -73.5t-85 -30.5z" />
    <glyph glyph-name="sixsuperior" unicode="&#x2076;" horiz-adv-x="324" 
d="M164 494q-54 0 -83.5 38.5t-29.5 95.5q0 42 19 77.5t48 57.5t51.5 34t41.5 18q8 3 12 -6l5 -11q6 -13 -6 -17q-42 -12 -79.5 -41.5t-53.5 -73.5l5 4q5 4 11.5 8t15.5 8.5t22.5 7t28.5 2.5q41 0 71 -26t30 -72q0 -43 -32 -73.5t-77 -30.5zM165 525q30 0 50 20t20 53
q0 30 -21 49t-51 19q-26 0 -47 -14t-29 -29q-1 -38 20.5 -68t57.5 -30z" />
    <glyph glyph-name="sevensuperior" unicode="&#x2077;" horiz-adv-x="324" 
d="M100 504q-14 0 -14 14l134 248h-161q-9 0 -9 9v16q0 9 9 9h197q9 0 9 -9v-16l-139 -262q-5 -9 -13 -9h-13z" />
    <glyph glyph-name="eightsuperior" unicode="&#x2078;" horiz-adv-x="314" 
d="M160 494q-50 0 -81 24.5t-31 61.5q0 23 12.5 41.5t23 24.5t18.5 9v2q-19 9 -32 28.5t-13 42.5q0 38 29 60t74 22t74 -22t29 -60q0 -23 -13.5 -42.5t-32.5 -28.5v-2q6 -2 12.5 -6t17.5 -12.5t18 -23.5t7 -33q0 -37 -31 -61.5t-81 -24.5zM160 669q66 5 66 55
q0 25 -18.5 39.5t-47.5 14.5t-47.5 -14.5t-18.5 -39.5q0 -50 66 -55zM160 525q33 0 53.5 16t20.5 41q0 23 -18 39t-56 18q-38 -2 -56 -18t-18 -39q0 -25 20.5 -41t53.5 -16z" />
    <glyph glyph-name="ninesuperior" unicode="&#x2079;" horiz-adv-x="325" 
d="M113 487q-8 -3 -12 6l-5 11q-6 13 6 17q42 12 79.5 41.5t53.5 73.5l-5 -4q-5 -4 -11.5 -8t-15.5 -8.5t-22.5 -7t-28.5 -2.5q-41 0 -71 26t-30 72q0 43 32 73.5t77 30.5q54 0 83.5 -38.5t29.5 -95.5q0 -42 -19 -77.5t-48 -57.5t-51.5 -34t-41.5 -18zM161 636q26 0 47 14
t29 29q1 38 -20.5 68t-57.5 30q-30 0 -50 -20t-20 -53q0 -30 21 -49t51 -19z" />
    <glyph glyph-name="zeroinferior" unicode="&#x2080;" horiz-adv-x="345" 
d="M50 7q0 74 32 116.5t90 42.5t90.5 -42t32.5 -117q0 -73 -32.5 -115t-90.5 -42q-57 0 -89.5 42t-32.5 115zM86 7q0 -58 22.5 -91t63.5 -33t64 32.5t23 91.5t-23 93t-64 34q-40 0 -63 -34t-23 -93z" />
    <glyph glyph-name="oneinferior" unicode="&#x2081;" horiz-adv-x="199" 
d="M58 83l-6 10q-3 6 3 11l73 52h12q10 0 10 -8v-280q0 -8 -8 -8h-20q-8 0 -8 8v241l-47 -28q-6 -3 -9 2z" />
    <glyph glyph-name="twoinferior" unicode="&#x2082;" horiz-adv-x="311" 
d="M75 99l-13 12q-5 5 -1 10t11 12.5t31.5 20t51.5 12.5q50 0 78 -26t28 -64q0 -45 -46 -88l-106 -97h143q7 0 7 -8v-15q0 -8 -7 -8h-193q-9 0 -9 8v9l139 130q35 33 36 66q0 24 -19 42t-53 18q-35 0 -68 -33q-5 -6 -10 -1z" />
    <glyph glyph-name="threeinferior" unicode="&#x2083;" horiz-adv-x="322" 
d="M100 5v12q0 8 8 8h45q32 0 52.5 14t20.5 41q0 24 -19 39t-49 15q-41 0 -71 -30q-5 -6 -10 -1l-13 11q-6 6 -1 11q4 5 11.5 11.5t33 18t52.5 11.5q45 0 74 -22t29 -60q0 -23 -15.5 -43t-36.5 -29q2 -1 6.5 -2.5t15 -8t18.5 -14t14.5 -21.5t6.5 -30q0 -37 -32 -61.5
t-82 -24.5q-71 0 -105 41q-5 5 0 11l11 11q6 7 13 0l4 -4q4 -4 6.5 -6t8 -5.5t11.5 -6t13.5 -5t17 -4t19.5 -1.5q34 0 55.5 16t21.5 41q0 24 -21 40.5t-60 16.5h-45q-8 0 -8 10z" />
    <glyph glyph-name="fourinferior" unicode="&#x2084;" horiz-adv-x="342" 
d="M49 -53l189 209h14q10 0 10 -9v-185h39q9 0 9 -8v-16q0 -8 -9 -8h-39v-61q0 -9 -10 -9h-17q-10 0 -10 9v60h-167q-9 0 -9 9v9zM106 -37h119v130z" />
    <glyph glyph-name="fiveinferior" unicode="&#x2085;" horiz-adv-x="348" 
d="M70 29v118q0 9 9 9h148q9 0 9 -9v-17q0 -8 -9 -8h-124v-75h59q54 0 82.5 -24t28.5 -69q0 -43 -34 -73.5t-85 -30.5q-57 0 -98 38q-7 7 -1 15l9 11q6 7 13 0q33 -33 78 -33q35 0 58 21.5t23 49.5q0 27 -20 44.5t-53 17.5h-78q-15 0 -15 15z" />
    <glyph glyph-name="sixinferior" unicode="&#x2086;" horiz-adv-x="324" 
d="M51 -16q0 42 19 77.5t48 57.5t51.5 34t41.5 18q8 3 12 -6l5 -11q6 -13 -6 -17q-42 -12 -79.5 -41.5t-53.5 -73.5l5 4q5 4 11.5 8t15.5 8.5t22.5 7t28.5 2.5q41 0 71 -26t30 -72q0 -43 -32 -73.5t-77 -30.5q-54 0 -83.5 38.5t-29.5 95.5zM87 -21q-1 -38 20.5 -68t57.5 -30
q30 0 50 20t20 53q0 30 -21 49t-51 19q-26 0 -47 -14t-29 -29z" />
    <glyph glyph-name="seveninferior" unicode="&#x2087;" horiz-adv-x="324" 
d="M59 122q-9 0 -9 9v16q0 9 9 9h197q9 0 9 -9v-16l-139 -262q-5 -9 -13 -9h-13q-14 0 -14 14l134 248h-161z" />
    <glyph glyph-name="eightinferior" unicode="&#x2088;" horiz-adv-x="314" 
d="M48 -64q0 23 12.5 41.5t23 24.5t18.5 9v2q-19 9 -32 28.5t-13 42.5q0 38 29 60t74 22t74 -22t29 -60q0 -23 -13.5 -42.5t-32.5 -28.5v-2q6 -2 12.5 -6t17.5 -12.5t18 -23.5t7 -33q0 -37 -31 -61.5t-81 -24.5t-81 24.5t-31 61.5zM94 80q0 -50 66 -55q66 5 66 55
q0 25 -18.5 39.5t-47.5 14.5t-47.5 -14.5t-18.5 -39.5zM86 -62q0 -25 20.5 -41t53.5 -16t53.5 16t20.5 41q0 23 -18 39t-56 18q-38 -2 -56 -18t-18 -39z" />
    <glyph glyph-name="nineinferior" unicode="&#x2089;" horiz-adv-x="325" 
d="M51 60q0 43 32 73.5t77 30.5q54 0 83.5 -38.5t29.5 -95.5q0 -42 -19 -77.5t-48 -57.5t-51.5 -34t-41.5 -18q-8 -3 -12 6l-5 11q-6 13 6 17q42 12 79.5 41.5t53.5 73.5l-5 -4q-5 -4 -11.5 -8t-15.5 -8.5t-22.5 -7t-28.5 -2.5q-41 0 -71 26t-30 72zM89 60q0 -30 21 -49
t51 -19q26 0 47 14t29 29q1 38 -20.5 68t-57.5 30q-30 0 -50 -20t-20 -53z" />
    <glyph glyph-name="Euro" unicode="&#x20ac;" horiz-adv-x="735" 
d="M32 259q-12 0 -12 13v5q0 13 12 13h47q-5 30 -5 59q0 19 1 28h-43q-12 0 -12 14v5q0 13 12 13h47q21 129 122 215t235 86q142 0 243 -93q9 -9 1 -18l-15 -15q-10 -10 -20 0q-86 81 -209 81q-115 0 -200.5 -73t-105.5 -183h323q13 0 13 -15v-4q0 -13 -13 -13h-328
q-1 -9 -1 -28q0 -35 5 -59h285q12 0 12 -15v-4q0 -12 -12 -12h-277q29 -99 111 -161.5t188 -62.5q67 0 113.5 20.5t97.5 63.5q10 8 16 2l17 -17q9 -9 0 -17q-101 -97 -244 -97q-126 0 -223 75.5t-127 193.5h-54z" />
    <glyph glyph-name="afii61289" unicode="&#x2113;" horiz-adv-x="505" 
d="M113 145q0 27 8 81q-28 -9 -56 -14q-13 -1 -17 8l-3 12q-6 17 12 19q50 8 73 16l19 99q35 172 81.5 258t117.5 86q49 0 77 -34.5t28 -93.5q0 -84 -43 -154t-105 -113.5t-142 -73.5q-11 -50 -11 -94q0 -117 93 -117q83 0 163 46q11 7 17 -2l7 -13q5 -9 -3 -17
q-8 -7 -25 -16.5t-63 -23.5t-96 -14q-132 0 -132 155zM171 281q105 44 174 121t69 180q0 41 -17.5 64.5t-48.5 23.5q-55 0 -92 -77t-69 -233z" />
    <glyph glyph-name="trademark" unicode="&#x2122;" horiz-adv-x="721" 
d="M309 394q-14 0 -10 15l68 291q3 10 11 10h5q6 0 10 -10l86 -245h1l87 245q4 10 10 10h5q8 0 11 -10l68 -291q4 -15 -10 -15h-11q-9 0 -12 10l-53 217h-1l-80 -224q-3 -8 -9 -8h-10q-6 0 -9 8l-81 224h-1l-52 -217q-3 -10 -12 -10h-11zM161 394q-12 0 -12 13v260h-87
q-13 0 -13 15v5q0 13 13 13h208q13 0 13 -13v-7q0 -13 -13 -13h-86v-260q0 -13 -13 -13h-10z" />
    <glyph glyph-name="Omega" unicode="&#x2126;" horiz-adv-x="780" 
d="M58 13v15q0 13 13 13h138q-81 47 -130.5 128.5t-49.5 179.5q0 150 105 255.5t255 105.5t255 -105.5t105 -255.5q0 -98 -49.5 -179.5t-130.5 -128.5h138q13 0 13 -13v-15q0 -13 -13 -13h-237q-12 0 -12 13v15q0 10 12 13q103 26 169 111.5t66 196.5q0 131 -92.5 224
t-223.5 93t-223.5 -93t-92.5 -224q0 -111 66 -196.5t169 -111.5q12 -3 12 -13v-15q0 -13 -12 -13h-237q-13 0 -13 13z" />
    <glyph glyph-name="estimated" unicode="&#x212e;" horiz-adv-x="823" 
d="M141 152q39 -58 111 -91t151 -33q119 0 220 88q10 10 20 0l8 -9q7 -8 -3 -18q-105 -99 -245 -99q-153 0 -258 103.5t-105 255.5t105.5 256.5t257.5 104.5t257.5 -103.5t106.5 -255.5q0 -21 -17 -21h-609v-178zM141 366h526v178q-44 61 -113 94.5t-151 33.5t-150 -33
t-112 -93v-180z" />
    <glyph glyph-name="onethird" unicode="&#x2153;" horiz-adv-x="610" 
d="M56 14l384 681q3 5 13 5h15q15 0 8 -14l-384 -681q-3 -5 -13 -5h-15q-15 0 -8 14zM98 404q-8 0 -8 8v241l-47 -28q-6 -3 -9 2l-6 10q-3 6 3 11l73 52h12q10 0 10 -8v-280q0 -8 -8 -8h-20zM366 31q-6 5 0 11l11 11q7 7 13 0l4 -4q4 -4 6.5 -6t8 -5.5t11.5 -6t13.5 -5
t17 -4t19.5 -1.5q34 0 55.5 16t21.5 41q0 24 -21 40.5t-60 16.5h-45q-8 0 -8 10v12q0 8 8 8h45q32 0 52.5 14t20.5 41q0 24 -19 39t-49 15q-41 0 -71 -30q-6 -6 -10 -1l-13 11q-6 6 -1 11q4 5 11.5 11.5t33 18t52.5 11.5q45 0 74 -22t29 -60q0 -23 -15.5 -43t-36.5 -29
q2 -1 6.5 -2.5t15 -8t18.5 -14t14.5 -21.5t6.5 -30q0 -37 -32 -61.5t-82 -24.5q-71 0 -105 41z" />
    <glyph glyph-name="twothirds" unicode="&#x2154;" horiz-adv-x="610" 
d="M5 404q-9 0 -9 8v9l139 130q35 33 36 66q0 24 -19 42t-53 18q-35 0 -68 -33q-5 -6 -10 -1l-13 12q-5 5 -1 10t11 12.5t31.5 20t51.5 12.5q50 0 78 -26t28 -64q0 -45 -46 -88l-106 -97h143q7 0 7 -8v-15q0 -8 -7 -8h-193zM85 14l384 681q3 5 13 5h15q15 0 8 -14l-384 -681
q-3 -5 -13 -5h-15q-15 0 -8 14zM395 31q-5 5 0 11l11 11q6 7 13 0l4 -4q4 -4 6.5 -6t8 -5.5t11.5 -6t13.5 -5t17 -4t19.5 -1.5q34 0 55.5 16t21.5 41q0 24 -21 40.5t-60 16.5h-45q-8 0 -8 10v12q0 8 8 8h45q32 0 52.5 14t20.5 41q0 24 -19 39t-49 15q-41 0 -71 -30
q-5 -6 -10 -1l-13 11q-6 6 -1 11q4 5 11.5 11.5t33 18t52.5 11.5q45 0 74 -22t29 -60q0 -23 -15.5 -43t-36.5 -29q2 -1 6.5 -2.5t15 -8t18.5 -14t14.5 -21.5t6.5 -30q0 -37 -32 -61.5t-82 -24.5q-71 0 -105 41z" />
    <glyph glyph-name="oneeighth" unicode="&#x215b;" horiz-adv-x="610" 
d="M56 14l384 681q3 5 13 5h15q15 0 8 -14l-384 -681q-3 -5 -13 -5h-15q-15 0 -8 14zM98 404q-8 0 -8 8v241l-47 -28q-6 -3 -9 2l-6 10q-3 6 3 11l73 52h12q10 0 10 -8v-280q0 -8 -8 -8h-20zM361 76q0 23 12.5 41.5t23 24.5t18.5 9v2q-19 9 -32 28.5t-13 42.5q0 38 29 60
t74 22t74 -22t29 -60q0 -23 -13.5 -42.5t-32.5 -28.5v-2q6 -2 12.5 -6t17.5 -12.5t18 -23.5t7 -33q0 -37 -31 -61.5t-81 -24.5t-81 24.5t-31 61.5zM407 220q0 -50 66 -55q66 5 66 55q0 25 -18.5 39.5t-47.5 14.5t-47.5 -14.5t-18.5 -39.5zM399 78q0 -25 20.5 -41t53.5 -16
t53.5 16t20.5 41q0 23 -18 39t-56 18q-38 -2 -56 -18t-18 -39z" />
    <glyph glyph-name="threeeighths" unicode="&#x215c;" horiz-adv-x="610" 
d="M102 394q-71 0 -105 41q-5 5 0 11l11 11q6 7 13 0l4 -4q4 -4 6.5 -6t8 -5.5t11.5 -6t13.5 -5t17 -4t19.5 -1.5q34 0 55.5 16t21.5 41q0 24 -21 40.5t-60 16.5h-45q-8 0 -8 10v12q0 8 8 8h45q32 0 52.5 14t20.5 41q0 24 -19 39t-49 15q-41 0 -71 -30q-5 -6 -10 -1l-13 11
q-6 6 -1 11q4 5 11.5 11.5t33 18t52.5 11.5q45 0 74 -22t29 -60q0 -23 -15.5 -43t-36.5 -29q2 -1 6.5 -2.5t15 -8t18.5 -14t14.5 -21.5t6.5 -30q0 -37 -32 -61.5t-82 -24.5zM93 14l384 681q3 5 13 5h15q15 0 8 -14l-384 -681q-3 -5 -13 -5h-15q-15 0 -8 14zM392 76
q0 23 12.5 41.5t23 24.5t18.5 9v2q-19 9 -32 28.5t-13 42.5q0 38 29 60t74 22t74 -22t29 -60q0 -23 -13.5 -42.5t-32.5 -28.5v-2q6 -2 12.5 -6t17.5 -12.5t18 -23.5t7 -33q0 -37 -31 -61.5t-81 -24.5t-81 24.5t-31 61.5zM438 220q0 -50 66 -55q66 5 66 55q0 25 -18.5 39.5
t-47.5 14.5t-47.5 -14.5t-18.5 -39.5zM430 78q0 -25 20.5 -41t53.5 -16t53.5 16t20.5 41q0 23 -18 39t-56 18q-38 -2 -56 -18t-18 -39z" />
    <glyph glyph-name="fiveeighths" unicode="&#x215d;" horiz-adv-x="610" 
d="M92 14l384 681q3 5 13 5h15q15 0 8 -14l-384 -681q-3 -5 -13 -5h-15q-15 0 -8 14zM99 394q-57 0 -98 38q-7 7 -1 15l9 11q6 7 13 0q33 -33 78 -33q35 0 58 21.5t23 49.5q0 27 -20 44.5t-53 17.5h-78q-15 0 -15 15v118q0 9 9 9h148q9 0 9 -9v-17q0 -8 -9 -8h-124v-75h59
q54 0 82.5 -24t28.5 -69q0 -43 -34 -73.5t-85 -30.5zM391 76q0 23 12.5 41.5t23 24.5t18.5 9v2q-19 9 -32 28.5t-13 42.5q0 38 29 60t74 22t74 -22t29 -60q0 -23 -13.5 -42.5t-32.5 -28.5v-2q6 -2 12.5 -6t17.5 -12.5t18 -23.5t7 -33q0 -37 -31 -61.5t-81 -24.5t-81 24.5
t-31 61.5zM437 220q0 -50 66 -55q66 5 66 55q0 25 -18.5 39.5t-47.5 14.5t-47.5 -14.5t-18.5 -39.5zM429 78q0 -25 20.5 -41t53.5 -16t53.5 16t20.5 41q0 23 -18 39t-56 18q-38 -2 -56 -18t-18 -39z" />
    <glyph glyph-name="seveneighths" unicode="&#x215e;" horiz-adv-x="610" 
d="M68 14l384 681q3 5 13 5h15q15 0 8 -14l-384 -681q-3 -5 -13 -5h-15q-15 0 -8 14zM69 404q-14 0 -14 14l134 248h-161q-9 0 -9 9v16q0 9 9 9h197q9 0 9 -9v-16l-139 -262q-5 -9 -13 -9h-13zM367 76q0 23 12.5 41.5t23 24.5t18.5 9v2q-19 9 -32 28.5t-13 42.5q0 38 29 60
t74 22t74 -22t29 -60q0 -23 -13.5 -42.5t-32.5 -28.5v-2q6 -2 12.5 -6t17.5 -12.5t18 -23.5t7 -33q0 -37 -31 -61.5t-81 -24.5t-81 24.5t-31 61.5zM413 220q0 -50 66 -55q66 5 66 55q0 25 -18.5 39.5t-47.5 14.5t-47.5 -14.5t-18.5 -39.5zM405 78q0 -25 20.5 -41t53.5 -16
t53.5 16t20.5 41q0 23 -18 39t-56 18q-38 -2 -56 -18t-18 -39z" />
    <glyph glyph-name="partialdiff" unicode="&#x2202;" horiz-adv-x="565" 
d="M54 220q0 97 64 158t153 61q67 0 117.5 -28t69.5 -53q-9 52 -36.5 100t-60.5 81t-72 60.5t-67 42t-49 21.5q-16 6 -11 19l7 15q3 10 15 7q33 -13 68.5 -31.5t84 -56t85.5 -82.5t63 -113.5t26 -145.5q0 -125 -60.5 -205t-173.5 -80q-91 0 -157 67.5t-66 162.5zM98 218
q0 -77 53 -132.5t126 -55.5q91 0 141 69.5t50 168.5q0 10 -2 30q-5 7 -9.5 12.5t-24 23.5t-39.5 30.5t-52 23t-66 10.5q-73 0 -125 -51t-52 -129z" />
    <glyph glyph-name="Delta" unicode="&#x2206;" horiz-adv-x="677" 
d="M44 0q-32 0 -14 37l296 671q4 7 12 7h3q9 0 13 -7l295 -673q16 -35 -18 -35h-587zM82 42h511l-252 593h-2z" />
    <glyph glyph-name="product" unicode="&#x220f;" horiz-adv-x="642" 
d="M49 13v674q0 13 13 13h517q13 0 13 -13v-674q0 -13 -13 -13h-21q-13 0 -13 13v645h-449v-645q0 -13 -13 -13h-21q-13 0 -13 13z" />
    <glyph glyph-name="summation" unicode="&#x2211;" horiz-adv-x="523" 
d="M48 13v9l328 336l-328 319v10q0 13 13 13h401q13 0 13 -13v-17q0 -13 -13 -13h-330l281 -272q13 -13 13 -20v-11q0 -7 -13 -20l-281 -292h330q13 0 13 -13v-16q0 -13 -13 -13h-401q-13 0 -13 13z" />
    <glyph glyph-name="minus" unicode="&#x2212;" horiz-adv-x="510" 
d="M63 327q-13 0 -13 13v15q0 13 13 13h385q12 0 12 -13v-15q0 -13 -12 -13h-385z" />
    <glyph glyph-name="uni2215" unicode="&#x2215;" horiz-adv-x="144" 
d="M-92 5q-3 -5 -13 -5h-15q-15 0 -8 14l384 681q3 5 13 5h15q15 0 8 -14z" />
    <glyph glyph-name="uni2219" unicode="&#x2219;" horiz-adv-x="354" 
d="M177 221q-17 0 -29 12t-12 28q0 17 12 28.5t29 11.5t28.5 -11.5t11.5 -28.5t-11.5 -28.5t-28.5 -11.5z" />
    <glyph glyph-name="radical" unicode="&#x221a;" horiz-adv-x="657" 
d="M197 -1l-168 388q-7 13 8 13h27q9 0 11 -7l136 -321h2l272 619q4 9 14 9h128q12 0 12 -13v-15q0 -13 -12 -13h-107l-295 -660q-4 -9 -12 -9h-5q-8 0 -11 9z" />
    <glyph glyph-name="infinity" unicode="&#x221e;" horiz-adv-x="616" 
d="M188 158q-58 0 -98 40.5t-40 97.5q0 58 40 98.5t98 40.5q37 0 68.5 -20t50.5 -53q19 33 51 53t70 20q56 0 97 -40.5t41 -98.5q0 -57 -41 -97.5t-97 -40.5q-38 0 -70 20t-51 52q-19 -32 -50.5 -52t-68.5 -20zM327 296q0 -42 29 -71t72 -29q41 0 70 29t29 71q0 41 -29 70.5
t-70 29.5q-42 0 -71.5 -29t-29.5 -71zM188 196q41 0 70.5 29t29.5 71q0 41 -29.5 70.5t-70.5 29.5q-42 0 -71.5 -29.5t-29.5 -70.5q0 -42 29.5 -71t71.5 -29z" />
    <glyph glyph-name="integral" unicode="&#x222b;" horiz-adv-x="353" 
d="M121 -135v672q0 85 41.5 129t109.5 44q36 0 68 -13.5t44 -29.5q7 -9 2 -16l-10 -14q-7 -11 -17 -1q-36 34 -87 34q-49 0 -78 -33t-29 -100v-672q0 -85 -41.5 -129t-109.5 -44q-36 0 -68 13.5t-44 29.5q-7 9 -2 16l10 14q7 11 17 1q36 -34 87 -34q49 0 78 33t29 100z" />
    <glyph glyph-name="approxequal" unicode="&#x2248;" horiz-adv-x="437" 
d="M55 333l-10 6q-13 9 -5 24q2 3 5 8.5t13.5 20t22 25t30.5 19.5t39 9q38 0 80 -38q1 -1 8 -7.5t11 -9t10.5 -7t13 -6.5t12.5 -2q39 0 66 57q7 15 22 4l13 -8q9 -6 2 -22q-1 -3 -3.5 -8.5t-12 -18.5t-20.5 -23t-29 -18.5t-38 -8.5q-33 0 -73.5 35t-62.5 35
q-24 0 -42.5 -17.5t-27.5 -36.5q-9 -21 -24 -12zM71 165l-10 6q-13 9 -5 24q2 3 5 8.5t13.5 20t22 25t30.5 19.5t39 9q38 0 80 -38q1 -1 8 -7.5t11 -9t10.5 -7t13 -6.5t12.5 -2q39 0 66 57q7 15 22 4l13 -8q9 -6 2 -22q-1 -3 -3.5 -8.5t-12 -18.5t-20.5 -23t-29 -18.5
t-38 -8.5q-33 0 -73.5 35t-62.5 35q-24 0 -42.5 -17.5t-27.5 -36.5q-9 -21 -24 -12z" />
    <glyph glyph-name="notequal" unicode="&#x2260;" horiz-adv-x="441" 
d="M118 70q-11 6 -6 16l38 72h-87q-13 0 -13 14v15q0 13 13 13h108l88 166h-196q-13 0 -13 15v14q0 13 13 13h216l37 72q5 12 18 6l6 -3q10 -5 4 -16l-30 -59h64q13 0 13 -13v-16q0 -13 -13 -13h-85l-87 -166h172q13 0 13 -16v-13q0 -13 -13 -13h-194l-44 -85q-6 -11 -17 -6
z" />
    <glyph glyph-name="lessequal" unicode="&#x2264;" horiz-adv-x="448" 
d="M30 382q-10 6 -10 17v1q0 9 10 15l387 199q14 7 14 -10v-21q0 -10 -8 -15l-343 -169l343 -166q8 -5 8 -15v-21q0 -17 -14 -10zM34 74q-13 0 -13 13v15q0 13 13 13h385q12 0 12 -13v-15q0 -13 -12 -13h-385z" />
    <glyph glyph-name="greaterequal" unicode="&#x2265;" horiz-adv-x="448" 
d="M34 187q-14 -7 -14 10v21q0 10 8 15l343 166l-343 169q-8 5 -8 15v21q0 17 14 10l387 -199q10 -6 10 -15v-1q0 -11 -10 -17zM32 74q-12 0 -12 13v15q0 13 12 13h385q13 0 13 -13v-15q0 -13 -13 -13h-385z" />
    <glyph glyph-name="lozenge" unicode="&#x25ca;" horiz-adv-x="677" 
d="M112 303q-16 22 -20 31t-4 23t4 22t20 32l214 297q4 7 12 7h3q9 0 13 -7l212 -295q2 -3 6.5 -9.5t6 -9t4 -7t3.5 -7t2 -6.5t1.5 -8t0.5 -9q0 -15 -4.5 -24t-19.5 -32l-212 -294q-4 -7 -13 -7h-3q-8 0 -12 7zM339 55h2l212 302l-212 303h-2l-214 -303z" />
    <glyph glyph-name="uniF8FF" unicode="&#xf8ff;" horiz-adv-x="599" 
d="M50 30v640q0 30 30 30h439q30 0 30 -30v-640q0 -30 -30 -30h-439q-30 0 -30 30zM262 314q0 -12 14 -12h36q15 0 15 13v26q0 16 16.5 32t36 28.5t36 36.5t16.5 53q0 48 -35.5 79.5t-89.5 31.5q-24 0 -46.5 -6.5t-37 -15t-25.5 -17.5t-16 -15l-5 -7q-8 -12 0 -18l22 -22
q8 -6 17 0q1 1 7.5 7t9.5 9t11.5 8.5t15.5 8.5t18 5.5t22 2.5q29 0 45 -15t16 -37q0 -21 -15.5 -39t-34 -30t-34 -32.5t-15.5 -45.5v-29zM245 156q0 -20 14.5 -34t33.5 -14q20 0 34.5 14t14.5 34t-14.5 34t-34.5 14q-19 0 -33.5 -14t-14.5 -34z" />
    <glyph glyph-name="CR" horiz-adv-x="0" 
 />
    <glyph glyph-name="grave.cap" horiz-adv-x="302" 
d="M238 782l-172 79q-9 5 -4 15l10 20q5 9 17 3l164 -90q9 -5 6 -14l-5 -10q-4 -8 -16 -3z" />
    <glyph glyph-name="acute.cap" horiz-adv-x="302" 
d="M82 782q-12 -5 -16 3l-5 10q-3 9 6 14l164 90q12 6 17 -3l10 -20q5 -10 -4 -15z" />
    <glyph glyph-name="circumflex.cap" horiz-adv-x="373" 
d="M72 768q-9 -6 -15 2l-9 11q-5 7 4 14l121 98q5 5 10 5h3q5 0 10 -5l121 -98q9 -7 4 -14l-9 -11q-6 -8 -15 -2l-113 84z" />
    <glyph glyph-name="caron.cap" horiz-adv-x="373" 
d="M184 763q-5 0 -10 5l-121 98q-9 7 -4 14l9 11q6 8 15 2l113 -84l112 84q9 6 15 -2l9 -11q5 -7 -4 -14l-121 -98q-5 -5 -10 -5h-3z" />
    <glyph glyph-name="caron.alt" horiz-adv-x="373" 
d="M135 672q0 18 11.5 28.5t30.5 10.5q24 0 40 -23.5t16 -70.5q0 -52 -24.5 -89t-47.5 -50q-12 -7 -17 0l-8 10q-7 8 4 16q51 41 56 95q1 22 -5 38q-8 -5 -16 -5q-19 0 -29.5 11.5t-10.5 28.5z" />
    <glyph glyph-name="tilde.cap" horiz-adv-x="380" 
d="M57 799l-12 5q-10 3 -6 14q24 61 57 78q17 8 36 8q24 0 41 -14t24.5 -31.5t19.5 -31.5t28 -14q37 0 57 59q4 13 15 7l11 -4q8 -4 6 -13q-2 -8 -6 -17.5t-14 -27.5t-29 -29.5t-43 -11.5t-40.5 14.5t-24.5 31.5t-20.5 31.5t-27.5 14.5q-37 0 -57 -62q-3 -12 -15 -7z" />
    <glyph glyph-name="dieresis.cap" horiz-adv-x="474" 
d="M341 801q-14 0 -24 9.5t-10 23.5q0 15 10 25t24 10q15 0 25 -10t10 -25q0 -14 -10 -23.5t-25 -9.5zM132 801q-14 0 -24 9.5t-10 23.5q0 15 10 25t24 10q15 0 25 -10t10 -25q0 -14 -10 -23.5t-25 -9.5z" />
    <glyph glyph-name="macron.cap" horiz-adv-x="414" 
d="M71 831q-13 0 -13 13v12q0 13 13 13h272q13 0 13 -13v-12q0 -13 -13 -13h-272z" />
    <glyph glyph-name="breve.cap" horiz-adv-x="346" 
d="M173 775q-51 0 -87.5 32t-43.5 79q-2 14 10 14h13q8 0 12 -12q9 -34 34.5 -56t61.5 -22q34 0 60.5 22.5t34.5 55.5q3 12 12 12h14q12 0 10 -14q-8 -48 -44.5 -79.5t-86.5 -31.5z" />
    <glyph glyph-name="ring.cap" horiz-adv-x="290" 
d="M145 754q-45 0 -75.5 30.5t-30.5 75.5t30.5 76t75.5 31q44 0 75.5 -31t31.5 -76t-31 -75.5t-76 -30.5zM145 786q30 0 52 22t22 52t-22 52t-52 22t-52 -22t-22 -52t22 -52t52 -22z" />
    <glyph glyph-name="hungarumlaut.cap" horiz-adv-x="392" 
d="M220 766q-12 0 -7 12l79 159q5 11 14 11h22q8 0 11 -5t-1 -12l-93 -157q-4 -8 -13 -8h-12zM54 766q-12 0 -7 12l79 159q5 11 14 11h22q8 0 11 -5t-1 -12l-93 -157q-4 -8 -13 -8h-12z" />
    <glyph glyph-name="dotaccent.cap" horiz-adv-x="219" 
d="M108 810q-16 0 -27 11t-11 27t11 27t27 11t27 -11t11 -27t-11 -27t-27 -11z" />
    <glyph glyph-name="cedilla.cap" horiz-adv-x="247" 
d="M72 0h36v-54q48 -6 77.5 -30.5t29.5 -66.5q0 -40 -28 -68.5t-70 -28.5q-27 0 -48.5 10.5t-29.5 23.5q-7 11 1 18l10 8q7 6 16 -3q18 -21 51 -21q26 0 42.5 17.5t16.5 42.5q0 57 -92 68q-12 3 -12 13v71z" />
    <glyph glyph-name="ogonek.cap" horiz-adv-x="276" 
d="M38 -118q0 23 8.5 45t20.5 36.5t25 26t21.5 16.5t11.5 6l30 -4q-3 -2 -8.5 -5.5t-19 -15t-23.5 -24.5t-18.5 -33.5t-8.5 -42.5q0 -32 21.5 -49.5t52.5 -17.5q29 0 62 15q11 6 13 -8l1 -10q1 -10 -8 -16q-29 -17 -73 -17q-46 0 -77 24.5t-31 73.5z" />
    <glyph glyph-name="commaaccent" horiz-adv-x="292" 
d="M96 -141q0 18 11.5 28.5t30.5 10.5q24 0 40 -23.5t16 -70.5q0 -52 -24.5 -89t-47.5 -50q-12 -7 -17 0l-8 10q-7 8 4 16q51 41 56 95q1 22 -5 38q-8 -5 -16 -5q-19 0 -29.5 11.5t-10.5 28.5z" />
    <glyph glyph-name="commaaccent.alt" horiz-adv-x="292" 
d="M96 -141q0 18 11.5 28.5t30.5 10.5q24 0 40 -23.5t16 -70.5q0 -52 -24.5 -89t-47.5 -50q-12 -7 -17 0l-8 10q-7 8 4 16q51 41 56 95q1 22 -5 38q-8 -5 -16 -5q-19 0 -29.5 11.5t-10.5 28.5z" />
    <glyph glyph-name="commaaccent.cap" horiz-adv-x="292" 
d="M96 -141q0 18 11.5 28.5t30.5 10.5q24 0 40 -23.5t16 -70.5q0 -52 -24.5 -89t-47.5 -50q-12 -7 -17 0l-8 10q-7 8 4 16q51 41 56 95q1 22 -5 38q-8 -5 -16 -5q-19 0 -29.5 11.5t-10.5 28.5z" />
    <glyph glyph-name="brokenbar.case" horiz-adv-x="359" 
d="M177 508q-13 0 -13 13v345q0 13 13 13h6q12 0 12 -13v-345q0 -13 -13 -13h-5zM164 178q0 13 13 13h6q12 0 12 -13v-346q0 -12 -13 -12h-5q-13 0 -13 12v346z" />
    <glyph glyph-name="zero.tf" horiz-adv-x="604" 
d="M302 -10q-116 0 -180.5 93t-64.5 258t64.5 258t180.5 93t180.5 -93t64.5 -258t-64.5 -258t-180.5 -93zM302 31q96 0 148 81t52 229q0 147 -52 228t-148 81t-148.5 -81t-52.5 -228q0 -148 52 -229t149 -81z" />
    <glyph glyph-name="one.tf" horiz-adv-x="604" 
d="M150 0q-12 0 -12 13v11q0 13 12 13h158v577l-141 -115q-9 -7 -15 1l-12 14q-7 8 2 15l182 152h15q15 0 15 -12v-632h132q13 0 13 -13v-11q0 -13 -13 -13h-336z" />
    <glyph glyph-name="two.tf" horiz-adv-x="604" 
d="M80 12v18l265 266q111 111 111 198q0 63 -43.5 108.5t-124.5 45.5q-19 0 -36.5 -3.5t-31.5 -10.5t-25.5 -13.5t-22 -16t-16 -15t-12.5 -13.5l-8 -9q-9 -11 -20 -3l-12 10q-9 9 -2 18q3 4 7.5 10.5t22 24t37.5 30.5t52 23.5t67 10.5q101 0 158 -56.5t57 -139.5
q0 -61 -32 -113t-94 -114l-228 -227h336q13 0 13 -13v-15q0 -13 -13 -13h-392q-13 0 -13 12z" />
    <glyph glyph-name="three.tf" horiz-adv-x="604" 
d="M80 79q-8 10 0 17l16 13q8 7 18 -3l12 -12q13 -13 18.5 -18t22 -16t31 -16t37.5 -9.5t49 -4.5q78 0 127.5 41t49.5 109q0 69 -54 107.5t-126 38.5h-93q-13 0 -13 13v18q0 12 14 12h92q40 0 75 13t61 45.5t26 80.5q0 62 -43.5 101.5t-108.5 39.5q-94 0 -157 -74
q-8 -10 -17 -2l-15 12q-11 7 -1 17q3 4 8.5 10t24 21t39 27t52.5 21.5t66 9.5q87 0 143 -49.5t56 -128.5q0 -55 -34 -99.5t-79 -61.5v-2q52 -16 91.5 -63t39.5 -104q0 -84 -62 -138.5t-164 -54.5q-124 0 -202 89z" />
    <glyph glyph-name="four.tf" horiz-adv-x="604" 
d="M46 156q-17 0 -17 15v17l409 504h18q11 0 11 -11q0 -81 0.5 -243t0.5 -243h76q13 0 13 -12v-13q0 -13 -13 -13h-76v-144q0 -13 -13 -13h-5.5h-6h-6t-5.5 1t-4.5 2.5t-3.5 4t-1 5.5v143h-377zM85 196h340v416z" />
    <glyph glyph-name="five.tf" horiz-adv-x="604" 
d="M98 74q-10 13 -1 22l6.5 6.5t7.5 6.5q10 8 17 -2q62 -76 165 -76q82 0 135 56t53 133t-48 121.5t-140 44.5h-166q-9 0 -14 6.5t-5 14.5v261q0 13 13 13h314q13 0 13 -13v-16q0 -13 -13 -13h-285v-211h143q114 0 174 -54t60 -154q0 -96 -67 -163t-168 -67q-124 0 -194 84z
" />
    <glyph glyph-name="six.tf" horiz-adv-x="604" 
d="M78 275q0 77 26 145.5t63 113.5t85.5 82.5t84 56t68.5 31.5q12 3 15 -7l7 -15q5 -13 -11 -19q-21 -7 -49 -21.5t-67 -42t-72 -60.5t-60.5 -81t-36.5 -100q19 25 69.5 53t117.5 28q89 0 153 -61t64 -158q0 -95 -66 -162.5t-157 -67.5q-113 0 -173.5 80t-60.5 205zM121 268
q0 -99 50 -168.5t141 -69.5q73 0 126 55.5t53 132.5q0 78 -52 129t-125 51q-34 0 -66 -10.5t-52 -23t-39.5 -30.5t-24 -23.5t-9.5 -12.5q-2 -20 -2 -30z" />
    <glyph glyph-name="seven.tf" horiz-adv-x="604" 
d="M180 16l285 623h-369q-13 0 -13 14v15q0 13 13 13h414q14 0 14 -12v-5l-294 -648q-7 -16 -19 -16h-24q-7 0 -8.5 6t1.5 10z" />
    <glyph glyph-name="eight.tf" horiz-adv-x="604" 
d="M78 179q0 62 43.5 108t106.5 61v2q-56 16 -94 58.5t-38 99.5q0 78 54 129.5t150 51.5q97 0 152.5 -52t55.5 -129q0 -57 -38 -99.5t-94 -58.5v-2q64 -15 107 -60t43 -109q0 -88 -62 -138.5t-164 -50.5q-100 0 -161 50.5t-61 138.5zM302 372q74 5 117.5 41t43.5 94
q0 61 -44 102.5t-120 41.5q-74 0 -116 -41.5t-42 -102.5q0 -58 43 -94t118 -41zM124 175q0 -70 50 -108.5t126 -38.5q79 0 129.5 38t50.5 109q0 58 -48.5 99.5t-129.5 48.5q-82 -7 -130 -48t-48 -100z" />
    <glyph glyph-name="nine.tf" horiz-adv-x="604" 
d="M177 4q-5 14 11 19q28 10 65.5 31.5t85 58.5t85 94t48.5 121q-19 -25 -69.5 -53t-116.5 -28q-89 0 -153 61t-64 158q0 95 66 162.5t157 67.5q112 0 173 -80t61 -205q0 -77 -26 -145.5t-63 -113.5t-86 -82.5t-84 -56t-69 -31.5q-10 -3 -15 7zM289 288q34 0 66.5 10.5
t52 22.5t39 30.5t23.5 24t10 12.5q2 20 2 30q0 99 -49.5 168.5t-140.5 69.5q-74 0 -126.5 -55.5t-52.5 -132.5q0 -78 51.5 -129t124.5 -51z" />
    <glyph glyph-name="zero.denom" horiz-adv-x="345" 
d="M50 147q0 74 32 116.5t90 42.5t90.5 -42t32.5 -117q0 -73 -32.5 -115t-90.5 -42q-57 0 -89.5 42t-32.5 115zM86 147q0 -58 22.5 -91t63.5 -33t64 32.5t23 91.5t-23 93t-64 34q-40 0 -63 -34t-23 -93z" />
    <glyph glyph-name="one.denom" horiz-adv-x="199" 
d="M114 8v241l-47 -28q-6 -3 -9 2l-6 10q-3 6 3 11l73 52h12q10 0 10 -8v-280q0 -8 -8 -8h-20q-8 0 -8 8z" />
    <glyph glyph-name="two.denom" horiz-adv-x="311" 
d="M50 8v9l139 130q35 33 36 66q0 24 -19 42t-53 18q-35 0 -68 -33q-5 -6 -10 -1l-13 12q-5 5 -1 10t11 12.5t31.5 20t51.5 12.5q50 0 78 -26t28 -64q0 -45 -46 -88l-106 -97h143q7 0 7 -8v-15q0 -8 -7 -8h-193q-9 0 -9 8z" />
    <glyph glyph-name="three.denom" horiz-adv-x="322" 
d="M53 31q-5 5 0 11l11 11q6 7 13 0l4 -4q4 -4 6.5 -6t8 -5.5t11.5 -6t13.5 -5t17 -4t19.5 -1.5q34 0 55.5 16t21.5 41q0 24 -21 40.5t-60 16.5h-45q-8 0 -8 10v12q0 8 8 8h45q32 0 52.5 14t20.5 41q0 24 -19 39t-49 15q-41 0 -71 -30q-5 -6 -10 -1l-13 11q-6 6 -1 11
q4 5 11.5 11.5t33 18t52.5 11.5q45 0 74 -22t29 -60q0 -23 -15.5 -43t-36.5 -29q2 -1 6.5 -2.5t15 -8t18.5 -14t14.5 -21.5t6.5 -30q0 -37 -32 -61.5t-82 -24.5q-71 0 -105 41z" />
    <glyph glyph-name="four.denom" horiz-adv-x="342" 
d="M58 69q-9 0 -9 9v9l189 209h14q10 0 10 -9v-185h39q9 0 9 -8v-16q0 -8 -9 -8h-39v-61q0 -9 -10 -9h-17q-10 0 -10 9v60h-167zM106 103h119v130z" />
    <glyph glyph-name="five.denom" horiz-adv-x="348" 
d="M56 28q-7 7 -1 15l9 11q6 7 13 0q33 -33 78 -33q35 0 58 21.5t23 49.5q0 27 -20 44.5t-53 17.5h-78q-15 0 -15 15v118q0 9 9 9h148q9 0 9 -9v-17q0 -8 -9 -8h-124v-75h59q54 0 82.5 -24t28.5 -69q0 -43 -34 -73.5t-85 -30.5q-57 0 -98 38z" />
    <glyph glyph-name="six.denom" horiz-adv-x="324" 
d="M51 124q0 42 19 77.5t48 57.5t51.5 34t41.5 18q8 3 12 -6l5 -11q6 -13 -6 -17q-42 -12 -79.5 -41.5t-53.5 -73.5l5 4q5 4 11.5 8t15.5 8.5t22.5 7t28.5 2.5q41 0 71 -26t30 -72q0 -43 -32 -73.5t-77 -30.5q-54 0 -83.5 38.5t-29.5 95.5zM87 119q-1 -38 20.5 -68t57.5 -30
q30 0 50 20t20 53q0 30 -21 49t-51 19q-26 0 -47 -14t-29 -29z" />
    <glyph glyph-name="seven.denom" horiz-adv-x="324" 
d="M86 14l134 248h-161q-9 0 -9 9v16q0 9 9 9h197q9 0 9 -9v-16l-139 -262q-5 -9 -13 -9h-13q-14 0 -14 14z" />
    <glyph glyph-name="eight.denom" horiz-adv-x="314" 
d="M48 76q0 23 12.5 41.5t23 24.5t18.5 9v2q-19 9 -32 28.5t-13 42.5q0 38 29 60t74 22t74 -22t29 -60q0 -23 -13.5 -42.5t-32.5 -28.5v-2q6 -2 12.5 -6t17.5 -12.5t18 -23.5t7 -33q0 -37 -31 -61.5t-81 -24.5t-81 24.5t-31 61.5zM160 165q66 5 66 55q0 25 -18.5 39.5
t-47.5 14.5t-47.5 -14.5t-18.5 -39.5q0 -50 66 -55zM86 78q0 -25 20.5 -41t53.5 -16t53.5 16t20.5 41q0 23 -18 39t-56 18q-38 -2 -56 -18t-18 -39z" />
    <glyph glyph-name="nine.denom" horiz-adv-x="325" 
d="M96 0q-6 13 6 17q42 12 79.5 41.5t53.5 73.5l-5 -4q-5 -4 -11.5 -8t-15.5 -8.5t-22.5 -7t-28.5 -2.5q-41 0 -71 26t-30 72q0 43 32 73.5t77 30.5q54 0 83.5 -38.5t29.5 -95.5q0 -42 -19 -77.5t-48 -57.5t-51.5 -34t-41.5 -18q-8 -3 -12 6zM161 132q26 0 47 14t29 29
q1 38 -20.5 68t-57.5 30q-30 0 -50 -20t-20 -53q0 -30 21 -49t51 -19z" />
    <glyph glyph-name="zero.num" horiz-adv-x="345" 
d="M172 394q-57 0 -89.5 42t-32.5 115q0 74 32 116.5t90 42.5t90.5 -42t32.5 -117q0 -73 -32.5 -115t-90.5 -42zM172 427q41 0 64 32.5t23 91.5t-23 93t-64 34q-40 0 -63 -34t-23 -93q0 -58 22.5 -91t63.5 -33z" />
    <glyph glyph-name="one.num" horiz-adv-x="199" 
d="M122 404q-8 0 -8 8v241l-47 -28q-6 -3 -9 2l-6 10q-3 6 3 11l73 52h12q10 0 10 -8v-280q0 -8 -8 -8h-20z" />
    <glyph glyph-name="two.num" horiz-adv-x="311" 
d="M59 404q-9 0 -9 8v9l139 130q35 33 36 66q0 24 -19 42t-53 18q-35 0 -68 -33q-5 -6 -10 -1l-13 12q-5 5 -1 10t11 12.5t31.5 20t51.5 12.5q50 0 78 -26t28 -64q0 -45 -46 -88l-106 -97h143q7 0 7 -8v-15q0 -8 -7 -8h-193z" />
    <glyph glyph-name="three.num" horiz-adv-x="322" 
d="M158 394q-71 0 -105 41q-5 5 0 11l11 11q6 7 13 0l4 -4q4 -4 6.5 -6t8 -5.5t11.5 -6t13.5 -5t17 -4t19.5 -1.5q34 0 55.5 16t21.5 41q0 24 -21 40.5t-60 16.5h-45q-8 0 -8 10v12q0 8 8 8h45q32 0 52.5 14t20.5 41q0 24 -19 39t-49 15q-41 0 -71 -30q-5 -6 -10 -1l-13 11
q-6 6 -1 11q4 5 11.5 11.5t33 18t52.5 11.5q45 0 74 -22t29 -60q0 -23 -15.5 -43t-36.5 -29q2 -1 6.5 -2.5t15 -8t18.5 -14t14.5 -21.5t6.5 -30q0 -37 -32 -61.5t-82 -24.5z" />
    <glyph glyph-name="four.num" horiz-adv-x="342" 
d="M235 404q-10 0 -10 9v60h-167q-9 0 -9 9v9l189 209h14q10 0 10 -9v-185h39q9 0 9 -8v-16q0 -8 -9 -8h-39v-61q0 -9 -10 -9h-17zM106 507h119v130z" />
    <glyph glyph-name="five.num" horiz-adv-x="348" 
d="M154 394q-57 0 -98 38q-7 7 -1 15l9 11q6 7 13 0q33 -33 78 -33q35 0 58 21.5t23 49.5q0 27 -20 44.5t-53 17.5h-78q-15 0 -15 15v118q0 9 9 9h148q9 0 9 -9v-17q0 -8 -9 -8h-124v-75h59q54 0 82.5 -24t28.5 -69q0 -43 -34 -73.5t-85 -30.5z" />
    <glyph glyph-name="six.num" horiz-adv-x="324" 
d="M164 394q-54 0 -83.5 38.5t-29.5 95.5q0 42 19 77.5t48 57.5t51.5 34t41.5 18q8 3 12 -6l5 -11q6 -13 -6 -17q-42 -12 -79.5 -41.5t-53.5 -73.5l5 4q5 4 11.5 8t15.5 8.5t22.5 7t28.5 2.5q41 0 71 -26t30 -72q0 -43 -32 -73.5t-77 -30.5zM165 425q30 0 50 20t20 53
q0 30 -21 49t-51 19q-26 0 -47 -14t-29 -29q-1 -38 20.5 -68t57.5 -30z" />
    <glyph glyph-name="seven.num" horiz-adv-x="324" 
d="M100 404q-14 0 -14 14l134 248h-161q-9 0 -9 9v16q0 9 9 9h197q9 0 9 -9v-16l-139 -262q-5 -9 -13 -9h-13z" />
    <glyph glyph-name="eight.num" horiz-adv-x="314" 
d="M160 394q-50 0 -81 24.5t-31 61.5q0 23 12.5 41.5t23 24.5t18.5 9v2q-19 9 -32 28.5t-13 42.5q0 38 29 60t74 22t74 -22t29 -60q0 -23 -13.5 -42.5t-32.5 -28.5v-2q6 -2 12.5 -6t17.5 -12.5t18 -23.5t7 -33q0 -37 -31 -61.5t-81 -24.5zM160 569q66 5 66 55
q0 25 -18.5 39.5t-47.5 14.5t-47.5 -14.5t-18.5 -39.5q0 -50 66 -55zM160 425q33 0 53.5 16t20.5 41q0 23 -18 39t-56 18q-38 -2 -56 -18t-18 -39q0 -25 20.5 -41t53.5 -16z" />
    <glyph glyph-name="nine.num" horiz-adv-x="325" 
d="M113 387q-8 -3 -12 6l-5 11q-6 13 6 17q42 12 79.5 41.5t53.5 73.5l-5 -4q-5 -4 -11.5 -8t-15.5 -8.5t-22.5 -7t-28.5 -2.5q-41 0 -71 26t-30 72q0 43 32 73.5t77 30.5q54 0 83.5 -38.5t29.5 -95.5q0 -42 -19 -77.5t-48 -57.5t-51.5 -34t-41.5 -18zM161 536q26 0 47 14
t29 29q1 38 -20.5 68t-57.5 30q-30 0 -50 -20t-20 -53q0 -30 21 -49t51 -19z" />
    <glyph glyph-name="a.alt" 
d="M410 387v-374q0 -13 -13 -13h-10q-13 0 -14 13l-3 35q-54 -58 -138 -58q-78 0 -131.5 61t-53.5 149q0 89 54.5 149.5t137.5 60.5q73 0 131 -48l4 27q1 11 13 11h11q5 0 8.5 -4t3.5 -9zM367 101v212q-5 7 -16 17t-42 24.5t-66 14.5q-68 0 -110 -49t-42 -120t41 -120.5
t103 -49.5q39 0 72 18t44.5 32t15.5 21z" />
    <glyph glyph-name="agrave.alt" 
d="M410 387v-374q0 -13 -13 -13h-10q-13 0 -14 13l-3 35q-54 -58 -138 -58q-78 0 -131.5 61t-53.5 149q0 89 54.5 149.5t137.5 60.5q73 0 131 -48l4 27q1 11 13 11h11q5 0 8.5 -4t3.5 -9zM367 101v212q-5 7 -16 17t-42 24.5t-66 14.5q-68 0 -110 -49t-42 -120t41 -120.5
t103 -49.5q39 0 72 18t44.5 32t15.5 21zM334 559l-172 79q-9 5 -4 15l10 20q5 9 17 3l164 -90q9 -5 6 -14l-5 -10q-4 -8 -16 -3z" />
    <glyph glyph-name="aacute.alt" 
d="M410 387v-374q0 -13 -13 -13h-10q-13 0 -14 13l-3 35q-54 -58 -138 -58q-78 0 -131.5 61t-53.5 149q0 89 54.5 149.5t137.5 60.5q73 0 131 -48l4 27q1 11 13 11h11q5 0 8.5 -4t3.5 -9zM367 101v212q-5 7 -16 17t-42 24.5t-66 14.5q-68 0 -110 -49t-42 -120t41 -120.5
t103 -49.5q39 0 72 18t44.5 32t15.5 21zM166 558q-10 -4 -14 4l-6 13q-4 8 6 14l165 87q11 7 17 -3l10 -20q5 -11 -9 -18z" />
    <glyph glyph-name="acircumflex.alt" 
d="M410 387v-374q0 -13 -13 -13h-10q-13 0 -14 13l-3 35q-54 -58 -138 -58q-78 0 -131.5 61t-53.5 149q0 89 54.5 149.5t137.5 60.5q73 0 131 -48l4 27q1 11 13 11h11q5 0 8.5 -4t3.5 -9zM367 101v212q-5 7 -16 17t-42 24.5t-66 14.5q-68 0 -110 -49t-42 -120t41 -120.5
t103 -49.5q39 0 72 18t44.5 32t15.5 21zM132 550q-9 -6 -15 2l-9 11q-5 7 4 14l121 98q5 5 10 5h3q5 0 10 -5l121 -98q9 -7 4 -14l-9 -11q-6 -8 -15 -2l-113 84z" />
    <glyph glyph-name="atilde.alt" 
d="M410 387v-374q0 -13 -13 -13h-10q-13 0 -14 13l-3 35q-54 -58 -138 -58q-78 0 -131.5 61t-53.5 149q0 89 54.5 149.5t137.5 60.5q73 0 131 -48l4 27q1 11 13 11h11q5 0 8.5 -4t3.5 -9zM367 101v212q-5 7 -16 17t-42 24.5t-66 14.5q-68 0 -110 -49t-42 -120t41 -120.5
t103 -49.5q39 0 72 18t44.5 32t15.5 21zM108 579l-12 5q-10 3 -6 14q24 61 57 78q17 8 36 8q24 0 41 -14t24.5 -31.5t19.5 -31.5t28 -14q37 0 57 59q4 13 15 7l11 -4q8 -4 6 -13q-2 -8 -6 -17.5t-14 -27.5t-29 -29.5t-43 -11.5t-40.5 14.5t-24.5 31.5t-20.5 31.5t-27.5 14.5
q-37 0 -57 -62q-3 -12 -15 -7z" />
    <glyph glyph-name="adieresis.alt" 
d="M410 387v-374q0 -13 -13 -13h-10q-13 0 -14 13l-3 35q-54 -58 -138 -58q-78 0 -131.5 61t-53.5 149q0 89 54.5 149.5t137.5 60.5q73 0 131 -48l4 27q1 11 13 11h11q5 0 8.5 -4t3.5 -9zM367 101v212q-5 7 -16 17t-42 24.5t-66 14.5q-68 0 -110 -49t-42 -120t41 -120.5
t103 -49.5q39 0 72 18t44.5 32t15.5 21zM334 596q-14 0 -23.5 9.5t-9.5 23.5q0 15 9.5 25t23.5 10q15 0 25 -10t10 -25q0 -14 -10 -23.5t-25 -9.5zM143 596q-14 0 -24 9.5t-10 23.5q0 15 10 25t24 10q15 0 24.5 -10t9.5 -25q0 -14 -9.5 -23.5t-24.5 -9.5z" />
    <glyph glyph-name="amacron.alt" 
d="M410 387v-374q0 -13 -13 -13h-10q-13 0 -14 13l-3 35q-54 -58 -138 -58q-78 0 -131.5 61t-53.5 149q0 89 54.5 149.5t137.5 60.5q73 0 131 -48l4 27q1 11 13 11h11q5 0 8.5 -4t3.5 -9zM367 101v212q-5 7 -16 17t-42 24.5t-66 14.5q-68 0 -110 -49t-42 -120t41 -120.5
t103 -49.5q39 0 72 18t44.5 32t15.5 21zM104 595q-13 0 -13 12v13q0 13 13 13h272q13 0 13 -13v-13q0 -12 -13 -12h-272z" />
    <glyph glyph-name="abreve.alt" 
d="M410 387v-374q0 -13 -13 -13h-10q-13 0 -14 13l-3 35q-54 -58 -138 -58q-78 0 -131.5 61t-53.5 149q0 89 54.5 149.5t137.5 60.5q73 0 131 -48l4 27q1 11 13 11h11q5 0 8.5 -4t3.5 -9zM367 101v212q-5 7 -16 17t-42 24.5t-66 14.5q-68 0 -110 -49t-42 -120t41 -120.5
t103 -49.5q39 0 72 18t44.5 32t15.5 21zM246 538q-50 0 -86.5 31.5t-44.5 78.5q-2 14 10 14h13q8 0 12 -11q8 -35 34 -57t62 -22q34 0 60.5 22.5t34.5 56.5q3 11 12 11h14q12 0 10 -14q-8 -47 -44.5 -78.5t-86.5 -31.5z" />
    <glyph glyph-name="aring.alt" 
d="M410 387v-374q0 -13 -13 -13h-10q-13 0 -14 13l-3 35q-54 -58 -138 -58q-78 0 -131.5 61t-53.5 149q0 89 54.5 149.5t137.5 60.5q73 0 131 -48l4 27q1 11 13 11h11q5 0 8.5 -4t3.5 -9zM367 101v212q-5 7 -16 17t-42 24.5t-66 14.5q-68 0 -110 -49t-42 -120t41 -120.5
t103 -49.5q39 0 72 18t44.5 32t15.5 21zM246 497q-45 0 -76 30.5t-31 75.5t31 76t76 31q44 0 75 -31t31 -76t-31 -75.5t-75 -30.5zM246 529q29 0 51 22t22 52t-22 52t-51 22q-30 0 -52.5 -22t-22.5 -52t22.5 -52t52.5 -22z" />
    <glyph glyph-name="aringacute.alt" 
d="M410 387v-374q0 -13 -13 -13h-10q-13 0 -14 13l-3 35q-54 -58 -138 -58q-78 0 -131.5 61t-53.5 149q0 89 54.5 149.5t137.5 60.5q73 0 131 -48l4 27q1 11 13 11h11q5 0 8.5 -4t3.5 -9zM367 101v212q-5 7 -16 17t-42 24.5t-66 14.5q-68 0 -110 -49t-42 -120t41 -120.5
t103 -49.5q39 0 72 18t44.5 32t15.5 21zM243 429q-45 0 -76 30.5t-31 75.5t31 76t76 31q44 0 75 -31t31 -76t-31 -75.5t-75 -30.5zM243 461q29 0 51 22t22 52t-22 52t-51 22q-30 0 -52.5 -22t-22.5 -52t22.5 -52t52.5 -22zM164 642q-10 -4 -14 4l-6 13q-4 8 6 14l165 87
q11 7 17 -3l10 -20q5 -11 -9 -18z" />
    <glyph glyph-name="aogonek.alt" 
d="M287 -118q0 36 20.5 67.5t37.5 44t28 17.5l-3 37q-54 -58 -138 -58q-78 0 -131.5 61t-53.5 149q0 89 54.5 149.5t137.5 60.5q73 0 131 -48l4 27q1 11 13 11h11q5 0 8.5 -4t3.5 -9v-374q0 -13 -13 -13h-5q-66 -47 -66 -113q0 -32 21.5 -49.5t52.5 -17.5q29 0 62 15
q11 6 13 -8l1 -10q1 -10 -8 -16q-29 -17 -73 -17q-46 0 -77 24.5t-31 73.5zM367 101v212q-5 7 -16 17t-42 24.5t-66 14.5q-68 0 -110 -49t-42 -120t41 -120.5t103 -49.5q39 0 72 18t44.5 32t15.5 21z" />
    <glyph glyph-name="parenleft.case" horiz-adv-x="344" 
d="M307 -13q10 0 8 -12l-1 -15q0 -10 -12 -8q-46 2 -86.5 23t-76 64.5t-56 122t-20.5 183.5t20.5 183.5t56 122t76 65t86.5 23.5q12 0 12 -9l1 -15q2 -12 -8 -12q-93 -13 -146.5 -100t-53.5 -258t53.5 -258t146.5 -100z" />
    <glyph glyph-name="parenright.case" horiz-adv-x="344" 
d="M38 -13q93 13 146 100t53 258t-53 258t-146 100q-11 0 -9 12l1 15q2 9 13 9q36 -2 69 -15t64.5 -42t54 -72.5t36.5 -111.5t14 -153q0 -106 -20.5 -184t-56 -121.5t-75.5 -64.5t-86 -23q-11 -1 -13 8l-1 15q-2 12 9 12z" />
    <glyph glyph-name="hyphen.case" horiz-adv-x="478" 
d="M126 321q-12 0 -12 13v11q0 13 12 13h226q13 0 13 -13v-11q0 -13 -13 -13h-226z" />
    <glyph glyph-name="bracketleft.case" horiz-adv-x="330" 
d="M126 -140h165q13 0 13 -13v-15q0 -13 -13 -13h-195q-13 0 -13 13v975q0 13 13 13h195q13 0 13 -13v-15q0 -13 -13 -13h-165v-919z" />
    <glyph glyph-name="bracketright.case" horiz-adv-x="329" 
d="M39 -140h164v919h-164q-13 0 -13 13v15q0 13 13 13h194q13 0 13 -13v-975q0 -13 -13 -13h-194q-13 0 -13 13v15q0 13 13 13z" />
    <glyph glyph-name="braceleft.case" horiz-adv-x="365" 
d="M108 52v164q0 65 -73 89q-9 3 -9 9v16q0 6 9 9q73 24 73 89v160q0 66 19 115t51 75.5t68.5 39t78.5 12.5q14 0 14 -12v-12q0 -10 -10 -12q-84 -6 -131 -57t-47 -150v-159q0 -31 -17 -57.5t-29 -35t-22 -13.5v-1q3 -1 9 -4.5t17 -12.5t20 -20.5t15.5 -29.5t6.5 -38v-163
q0 -99 47 -150t131 -57q10 -2 10 -12v-12q0 -12 -14 -12q-42 0 -78.5 12.5t-68.5 39t-51 75.5t-19 115z" />
    <glyph glyph-name="bar.case" horiz-adv-x="195" 
d="M82 -168v1034q0 13 13 13h6q12 0 12 -13v-1034q0 -12 -13 -12h-5q-13 0 -13 12z" />
    <glyph glyph-name="braceright.case" horiz-adv-x="365" 
d="M214 53v163q0 24 9 44.5t23 33.5t21.5 18.5t14.5 8.5v1q-6 3 -13.5 8.5t-22 18t-23.5 33.5t-9 46v159q0 99 -47 150t-131 57q-10 2 -10 12v12q0 12 14 12q42 0 78.5 -12.5t68.5 -39t51 -75.5t19 -115v-160q0 -65 73 -89q9 -3 9 -9v-16q0 -6 -9 -9q-73 -24 -73 -89v-164
q0 -66 -19 -115t-51 -75.5t-68.5 -39t-78.5 -12.5q-14 0 -14 12v12q0 10 10 12q84 6 131 57t47 150z" />
    <glyph glyph-name="guilsinglleft.case" horiz-adv-x="245" 
d="M154 162l-108 157q-6 7 0 17l108 154q6 9 16 9h16q6 0 7.5 -5.5t-2.5 -12.5l-94 -153l94 -157q4 -7 2.5 -12.5t-7.5 -5.5h-16q-10 0 -16 9z" />
    <glyph glyph-name="guilsinglright.case" horiz-adv-x="245" 
d="M59 153q-6 0 -7.5 5.5t2.5 12.5l94 157l-94 153q-4 7 -2.5 12.5t7.5 5.5h16q10 0 16 -9l108 -154q6 -10 0 -17l-108 -157q-6 -9 -16 -9h-16z" />
    <glyph glyph-name="guillemotleft.case" horiz-adv-x="405" 
d="M206 319q-6 7 0 17l108 154q6 9 16 9h16q6 0 7.5 -5.5t-2.5 -12.5l-94 -153l94 -157q4 -7 2.5 -12.5t-7.5 -5.5h-16q-10 0 -16 9zM154 162l-108 157q-6 7 0 17l108 154q6 9 16 9h16q6 0 7.5 -5.5t-2.5 -12.5l-94 -153l94 -157q4 -7 2.5 -12.5t-7.5 -5.5h-16q-10 0 -16 9z
" />
    <glyph glyph-name="guillemotright.case" horiz-adv-x="405" 
d="M214 171l94 157l-94 153q-4 7 -2.5 12.5t7.5 5.5h16q10 0 16 -9l108 -154q6 -10 0 -17l-108 -157q-6 -9 -16 -9h-16q-6 0 -7.5 5.5t2.5 12.5zM59 153q-6 0 -7.5 5.5t2.5 12.5l94 157l-94 153q-4 7 -2.5 12.5t7.5 5.5h16q10 0 16 -9l108 -154q6 -10 0 -17l-108 -157
q-6 -9 -16 -9h-16z" />
    <glyph glyph-name="endash.case" horiz-adv-x="644" 
d="M130 323q-13 0 -13 12v8q0 13 13 13h384q13 0 13 -13v-8q0 -12 -13 -12h-384z" />
    <glyph glyph-name="emdash.case" horiz-adv-x="862" 
d="M130 323q-13 0 -13 12v8q0 13 13 13h602q13 0 13 -13v-8q0 -12 -13 -12h-602z" />
    <glyph glyph-name="bullet.case" horiz-adv-x="354" 
d="M175 244q-29 0 -50 21t-21 50q0 31 21 52.5t50 21.5q31 0 52.5 -21.5t21.5 -52.5q0 -29 -21.5 -50t-52.5 -21z" />
    <glyph glyph-name="periodcentered.case" horiz-adv-x="233" 
d="M117 311q-17 0 -29 12t-12 28q0 17 12 28.5t29 11.5t28.5 -11.5t11.5 -28.5t-11.5 -28.5t-28.5 -11.5z" />
    </font>
</defs>
</svg>
